Comedy

custom dvd screener year one xvid torrent [supreme speeds com]

  • Download 5x Faster
  • Download torrent
  • Direct Download
  • Rate this torrent +  |  -
custom dvd screener year one xvid torrent [supreme speeds com]

Free and Direct Download with Usenet.nl 300GB+ free


Torrent info

Name:custom dvd screener year one xvid torrent [supreme speeds com]

Total Size: 1.64 GB

Magnet: Magnet Link

Seeds: 0

Leechers: 0

Stream: Watch Online @ Movie4u

Last Updated: 2010-09-17 02:12:17 (Update Now)

Torrent added: 2009-09-09 09:11:00





Torrent Files List


VIDEO_TS (Size: 1.64 GB) (Files: 8)

 VIDEO_TS

  VIDEO_TS.BUP

12.00 KB

  VIDEO_TS.IFO

12.00 KB

  VIDEO_TS.VOB

56.00 KB

  VTS_01_0.BUP

76.00 KB

  VTS_01_0.IFO

76.00 KB

  VTS_01_0.VOB

41.05 MB

  VTS_01_1.VOB

1.00 GB

  VTS_01_2.VOB

618.48 MB
 

Announce URL: http://supreme-speeds.com/announce.php?passkey=60f831373d92b07bd90f1304dfafaa99

Torrent description

THIS IS A CUSTOM DVD SCREENER THE FILES R CONVERT AND READY TO BURN STRAIGHT TO DISC THREW NERO

SOURCE USED Year.One.SCREENER.XviD-ROAR

Year One (2009)
http://www.imdb.com/title/tt1045778/
5/10 (5,421 votes)


Video
ID : 224 (0xE0)
Format : MPEG Video
Format version : Version 2
Format profile : [email protected]
Format settings, Matrix : Default
Duration : 1h 0mn
Bit rate mode : Variable
Bit rate : 2 075 Kbps
Nominal bit rate : 9 608 Kbps
Width : 720 pixels
Height : 480 pixels
Display aspect ratio : 4/3
Frame rate : 29.970 fps
Standard : NTSC
Colorimetry : 4:2:0
Scan type : Progressive
Bits/(Pixel*Frame) : 0.200
Stream size : 900 MiB (88%)

Audio
ID : 128 (0x80)
Format : AC-3
Format/Info : Audio Coding 3
Duration : 1h 0mn
Bit rate mode : Constant
Bit rate : 192 Kbps
Channel(s) : 2 channels
Channel positions : L R
Sampling rate : 48.0 KHz
Stream size : 83.3 MiB (8%)

related torrents

Torrent name

health leech seeds Size
 

comments (0)

Main Menu