UK

Welcome To Strathmuir Pilot (2007) [TVRip][DivX]

  • Download 5x Faster
  • Download torrent
  • Direct Download
  • Rate this torrent +  |  -
Welcome To Strathmuir Pilot (2007) [TVRip][DivX]

Anonymous and Free Direct Download 300GB+


Torrent info

Name:Welcome To Strathmuir Pilot (2007) [TVRip][DivX]

Total Size: 596.02 MB

Magnet: Magnet Link

Seeds: 2

Leechers: 0

Stream: Watch Online @ Movie4u

Last Updated: 2010-09-22 15:50:07 (Update Now)

Torrent added: 2009-09-09 09:09:29



VPN For Torrents

Torrent Files List


Welcome To Strathmuir - Pilot Episode.avi (Size: 596.02 MB) (Files: 1)

 Welcome To Strathmuir - Pilot Episode.avi

596.02 MB
 

Announce URL: http://www.thebox.bz:2710/00000000000000000000000000000000/announce

Torrent description

This torrent was uploaded from www.TheBox.bz (signup is open and free) - the home of all British TV

Welcome To Strathmuir   Pilot (2007) [TVRip][DivX] preview 0

Welcome To Strathmuir, a comedy pilot that was broadcast on BBC2 Scotland in 2007. Starring John Gordon Sinclair, this sitcom is set in an information bureau in Strathmuir, a small fictitious Scottish town on the fringes of the Highlands.

The bureau is run by Andrew - a hugely optimistic 40-something man who believes Strathmuir to be the finest place on God's earth and is never happier than when selling the town, its amenities, and the surrounding area to tourists. Andrew is thwarted in his efforts promote Strathmuir by his assistant - Barry - a useless, lazy, spaced out young man.

His other main difficulty in life centres around sacking Muriel, who runs the possessed cafe attached to the bureau. Andrew wishes to replace her with Sheena, an over-ambitious, misguided young woman - just out of college and back from the bright lights of Glasgow - wanting to prove how far in the world she has come from when she left the small town of Strathmuir. Andrew calls on the help of the village lawyer, Deepak, for guidance on how he can resolve his problems before Deepak leaves Strathmuir to sail the Seven Seas.

Andrew is played by John Gordon Sinclair, Barry by David Kay, Muriel by Morwenna Banks, Sheena by Gabriel Quigley, Rev. Sterne by Jack Docherty, Sheena's Dad by Moray Hunter and Deepak by Nitin Ganatra. The episode was written by Moray Hunter and Jack Docherty and produced by ABsoLuTeLy Productions.


Format : AVI
Format/Info : Audio Video Interleave
File size : 596 MiB
Duration : 28:53
Overal bit rate : 196 Mbps

Video
Format : MPEG-4 Visual
Format profile : [email protected]
Format settings, BVOP : No
Format settings, QPel : No
Format settings, GMC : No warpoints
Format settings, Matrix : Default
Codec ID : DX50
Codec ID/Hint : DivX 5
Duration : 28:53
Bit rate : 182 Mbps
Width : 768 pixels
Height : 576 pixels
Display aspect ratio : 4/3
Frame rate : 23.970 fps
Resolution : 8 bits
Colorimetry : 4:2:0
Scan type : Progressive
Bits/(Pixel*Frame) : 17.132
Stream size : 554 MiB
Writing library : Lavc51.25.0

Audio
Format : MPEG Audio
Format version : Version 1
Format profile : Layer 3
Codec ID : 55
Codec ID/Hint : MP3
Bit rate mode : Constant
Bit rate : 192 Kbps
Channel(s) : 2 channels
Sampling rate : 44.1 KHz
Resolution : 16 bits
Stream size : 39.7 MiB
Writing library : LAME3.89 (alpha)



===============================

Some of the other rather spiffing shows available now and always if you signup free @ www.TheBox.bz:

Comedy: The Office, Peep Show, Coupling, Chef, Fawlty Towers, Only Fools and Horses, The IT Crowd, Brass Eye, Nathan Barley, Young Ones, Monty Python, Blackadder, Alan Partridge, Father Ted, Coupling, Little Britain, Mr Bean, Extras, Green Wing, Mighty Boosh

Drama: Casualty, Holby City, The Bill, Hustle, Skins, Shameless, Ashes To Ashes

Entertainment: Faking It, Derren Brown, Scrapheap Challenge, Strictly Come Dancing, Wife Swap

Game/Quiz Shows: Whose Line Is It Anyway?, Have I Got News For You, Deal Or No Deal (UK), Q.I.

Education/Documentary: Planet Earth, Horizon, Panorama, Mark Thomas (Comedy) Product

Food: Hell's Kitchen, Jamie Oliver, The F Word, Kitchen Nightmares, Masterchef, Great British Menu, Gordon Ramsay's Cookalong

Home/Property/Garden: Property Ladder, How Clean Is Your House?, Changing Rooms, Grand Designs, Homes Under The Hammer, To Buy Or Not To Buy

Motoring: Top Gear, Fifth Gear

Music: Top Of The Pops, Jools Holland, Glastonbury

Reality: Big Brother, Celebrity Big Brother, I'm a Celebrity - Get Me Out of Here!, Any Dream Will Do, Grease, Pop Idol, Wife Swap, X Factor, Badger Or Bust, Apprentice UK, Dragons' Den, Britain's Got Talent

Sci-Fi: Doctor Who, Red Dwarf, Torchwood, Primeval

Sport: Football (Soccer), Cricket, Rugby, Snooker, Darts, Formula One (F1GP)

Soaps: Eastenders, Coronation Street, Emmerdale, Neighbours, Hollyoaks

Style/Fashion: What Not To Wear, Project Catwalk

Kids: Teletubbies, Blue Peter, Tikkabilla, Andy Pandy, Postman Pat, Shoebox Zoo, Brum, Bob The Builder, Young Dracula, Sarah Jane Adventures, Shaun The Sheep

related torrents

Torrent name

health leech seeds Size
 


comments (0)

Main Menu