Sci-Fi

CUSTOM DVD SCREENER STAR TREK torrent [supreme speeds com]

  • Download 5x Faster
  • Download torrent
  • Direct Download
  • Rate this torrent +  |  -

Torrent info

Name:CUSTOM DVD SCREENER STAR TREK torrent [supreme speeds com]

Total Size: 1.94 GB

Magnet: Magnet Link

Seeds: 0

Leechers: 0

Stream: Watch Full Movie @ Movie4u

Last Updated: 2015-09-01 11:54:13 (Update Now)

Torrent added: 2009-09-09 09:00:15



VPN For Torrents

Torrent Files List


VIDEO_TS (Size: 1.94 GB) (Files: 8)

 VIDEO_TS

  VIDEO_TS.BUP

12.00 KB

  VIDEO_TS.IFO

12.00 KB

  VIDEO_TS.VOB

56.00 KB

  VTS_01_0.BUP

94.00 KB

  VTS_01_0.IFO

94.00 KB

  VTS_01_0.VOB

53.58 MB

  VTS_01_1.VOB

1.00 GB

  VTS_01_2.VOB

913.49 MB
 

tracker

leech seeds
 

Torrent description

Star Trek (2009) More at IMDbPro »
Star Trek (2009) More at IMDbPro » Genre: Action | Adventure | Sci-Fi
Release Date: 7 May 2009 (Germany)
User Rating: 8.4/10 8.4/10 82,776 votes
Language: English
Country: USA
Runtime: 127 min
Plot Outline: A chronicle of the early days of James T. Kirk and his fellow USS Enterprise crew members. full summary | full synopsis
IMDB Link: http://www.imdb.com/title/tt0796366/

Details for torrent " CUSTOM DVD SCREENER STAR TREK WWW.SUPREME-SPEEDS "
THIS IS A CUSTOM DVD THESE FILES R READY TO BURN THREW NERO

SOURCE USED Star.Trek.SCREENER.XviD

Star Trek (2009)
http://www.imdb.com/title/tt0796366/
8.4/10 (82,592 votes)

Star.Trek.SCREENER.XviD-ROAR
SOURCE: Screener
VIDEO.: XviD 512x384 @896
AUDIO.: From Source

Video
ID : 224 (0xE0)
Format : MPEG Video
Format version : Version 2
Format profile : [email protected]
Format settings, Matrix : Default
Duration : 1h 7mn
Bit rate mode : Variable
Bit rate : 1 859 Kbps
Nominal bit rate : 9 608 Kbps
Width : 720 pixels
Height : 480 pixels
Display aspect ratio : 4/3
Frame rate : 29.970 fps
Standard : NTSC
Colorimetry : 4:2:0
Scan type : Progressive
Bits/(Pixel*Frame) : 0.179
Stream size : 891 MiB (87%)

Audio
ID : 128 (0x80)
Format : AC-3
Format/Info : Audio Coding 3
Duration : 1h 7mn
Bit rate mode : Constant
Bit rate : 192 Kbps
Channel(s) : 2 channels
Channel positions : L R
Sampling rate : 48.0 KHz
Stream size : 92.1 MiB (9%)

related torrents

Torrent name

health leech seeds Size
 


comments (0)

Main Menu

 

script data-cfasync="false" src="//d2ghscazvn398x.cloudfront.net/?cshgd=690275">