Movies - Other

la montagne du du cannibale francais de france ( Net)

  • Download 5x Faster
  • Download torrent
  • Direct Download
  • Rate this torrent +  |  -
la montagne du du cannibale francais de france ( Net)

Anonymous and Free Direct Download


Torrent info

Name:la montagne du du cannibale francais de france ( Net)

Total Size: 648.92 MB

Magnet: Magnet Link

Seeds: 0

Leechers: 0

Stream: Watch Online @ Movie4u

Last Updated: 2010-09-01 01:54:41 (Update Now)

Torrent added: 2009-09-09 08:54:20



VPN For Torrents

Torrent Files List


La.Montagne.Du.Dieu.Cannibale.FRENCH QT.avi (Size: 648.92 MB) (Files: 1)

 La.Montagne.Du.Dieu.Cannibale.FRENCH QT.avi

648.92 MB
 

Announce URL: http://www.quebec-team.net/announce.php

Torrent description

***ATTENTION***

Pour télécharger ce torrent, vous devez posséder un compte sur Quebec-Team ! et ensuite entrez votre passkey manuellement (http://www.quebec-team.net/announce.php?passkeyici) OU re-télécharger le torrent via le site. Merci!

***ATTENTION***

Lien d'origine : http://www.quebec-team.net/torrents/Films--DVD-RIP/torrent/la-montagne-du-du-cannibale-francais-de-france.html

[aligner=centre][couleur=midnightblue][taille=56]La Montagne du Dieu cannibale[/taille][/couleur][/aligner]

[aligner=centre]la montagne du du cannibale francais de france ( Net) preview 0[/centre]

[aligner=centre]la montagne du du cannibale francais de france ( Net) preview 1[/aligner]

[aligner=centre]la montagne du du cannibale francais de france ( Net) preview 4[/aligner]

[aligner=centre]Origine du film : italien[/aligner]
[aligner=centre]Réalisateur : Sergio Martino[/aligner]
[aligner=centre]Acteurs : Ursula Andress, Stacy Keach, Claudio Cassinelli[/aligner]
[aligner=centre]Genre : Epouvante-horreur[/aligner]
[aligner=centre]Durée : 1h 39min[/aligner]
[aligner=centre]Date de sortie : Aucune information ...[/aligner]
[aligner=centre]Année de production : 1978[/aligner]
[aligner=centre]Titre Original : La Montagna del dio cannibale[/aligner]
[aligner=centre]Distribué par : Aucune information ...[/aligner]
[aligner=centre]Critiques spectateurs : la montagne du du cannibale francais de france ( Net) preview 3 pour 2 critiques[/aligner]
[aligner=centre]Bande annonce : [/aligner]
[aligner=centre]Aucune bande annonce disponible pour ce film ...[/aligner]

[aligner=centre]la montagne du du cannibale francais de france ( Net) preview 5[/aligner]

[aligner=centre]Accompagnée de son frère et du professeur Foster, Susan Stevenson part à la recherche de son mari disparu au cours d'une mission anthropologique en Nouvelle-Guinée. Pour cela, ils doivent passer par la terrible jungle de Marabata, territoire d'une féroce tribu cannibale, les Pukas.[/aligner]

[aligner=centre]la montagne du du cannibale francais de france ( Net) preview 6[/aligner]



[aligner=centre]Qualité : DVDRiP[/aligner]

[aligner=centre]Format : Avi[/aligner]

[aligner=centre]Langue : Français de France[/aligner]

[aligner=centre]Sous-titre : Aucun[/aligner]

[aligner=centre]Découper avec : Aucun[/aligner]

[aligner=centre]Nombre de fichiers : 1 Fichiers[/aligner]

[aligner=centre]Taille des fichiers : 700 Mo[/aligner]

[aligner=centre]Taille totale : 700 Mo[/aligner]

[aligner=centre]la montagne du du cannibale francais de france ( Net) preview 7[/aligner]

[aligner=centre][couleur=red][b][taille=56] Details techniques sur le NFO[/taille][/couleur][/aligner]

[aligner=centre]la montagne du du cannibale francais de france ( Net) preview 2[/aligner]





La.Montagne.Du.Dieu.Cannibale.FRENCH.DVDRiP.XviD

General
Complete name : La Montagne Du Dieu Cannibale
Format : AVI
Format/Info : Audio Video Interleave
File size : 649 MiB
Duration : 1h 42mn
Overall bit rate : 882 Kbps
Writing application : VirtualDubMod 1.5.10.1 (build 2366/release)
Writing library : VirtualDubMod build 2366/release

Video
Format : MPEG-4 Visual
Format profile : Streaming Video@L1
Format settings, BVOP : Yes
Format settings, QPel : No
Format settings, GMC : No warppoints
Format settings, Matrix : Default (H.263)
Codec ID : XVID
Codec ID/Hint : XviD
Duration : 1h 42mn
Bit rate : 744 Kbps
Width : 696 pixels
Height : 302 pixels
Display aspect ratio : 2.35
Frame rate : 25.000 fps
Resolution : 24 bits
Colorimetry : 4:2:0
Scan type : Progressive
Bits/(Pixel*Frame) : 0.142
Stream size : 548 MiB (84%)
Writing library : XviD 1.0.3 (UTC 2004-12-20)

Audio
Format : MPEG Audio
Format version : Version 1
Format profile : Layer 3
Codec ID : 55
Codec ID/Hint : MP3
Duration : 1h 42mn
Bit rate mode : Constant
Bit rate : 128 Kbps
Channel(s) : 2 channels
Sampling rate : 48.0 KHz
Resolution : 16 bits
Stream size : 94.2 MiB (15%)
Alignment : Split accross interleaves
Interleave, duration : 40 ms (1.00 video frame)
Interleave, preload duration : 500 ms

related torrents

Torrent name

health leech seeds Size
 


comments (0)

Main Menu