UK

Shades of Darkness: Feet Foremost (10th June 1983) [VHSRip (Xvid)]

  • Download 5x Faster
  • Download torrent
  • Direct Download
  • Rate this torrent +  |  -


Torrent info

Name:Shades of Darkness: Feet Foremost (10th June 1983) [VHSRip (Xvid)]

Total Size: 643.65 MB

Magnet: Magnet Link

Seeds: 0

Leechers: 0

Stream: Watch Online @ Movie4u

Last Updated: 2015-10-19 22:19:42 (Update Now)

Torrent added: 2009-09-09 08:51:09




Torrent Files List


Feet Foremost.avi (Size: 643.65 MB) (Files: 1)

 Feet Foremost.avi

643.65 MB
 

Announce URL:

Torrent description

This torrent was uploaded from www.TheBox.bz (signup is open and free) - the home of all British TV

Shades of Darkness: Feet Foremost (10th June 1983) [VHSRip (Xvid)] preview 0

SHADES OF DARKNESS: FEET FOREMOST



Synopsis
A magnate buys an old house that has been abandoned since the early 19th century because it is haunted by a ghost of a 16 year old girl murdered by the lord of the manor, who, if carried across the threshold, will select a victim to kill from the inside out (Scott Andrew Hutchins).



Cast

Charles Ampleforth - Jeremy Kemp
Mildred Ampleforth - Joanna Van Gyseghem
Anthony Fairchild - Peter Machin
Maggie Winthrop - Caol Royle
Wilkins - Ken Kitson
Rundle - Alex Johnston
Mrs. Rundle - Barrie Shore
Ronald Turnbull - David Quilter
Eileen Turnbull - Heather Chasen
Doctor - John Rowe
TV Interviewer - Lesley Bennett
Lady Elinor - Samantha Gates



Crew

Executive Producer - Michael Cox
Producer - June Wyndham-Davies
Writer - L.P. Hartley (Original Story), Alan Plater (Script)
Director - Gordon Flemyng



Information
Part of the SHADES OF DARKNESS series, but curiously omitted (along with THE LAST SEANCE and SEATON'S AUNT) from the Koch Vision DVD release.

Shades of Darkness: Feet Foremost (10th June 1983) [VHSRip (Xvid)] preview 1



Technical Gibberish


General
Complete name: Feet Foremost.avi
Format: AVI
Format/Info: Audio Video Interleave
File size: 644 MiB
Duration: 52mn 52s
Overall bit rate: 1 702 Kbps


Video
Format: MPEG-4 Visual
Format profile: Streaming [email protected]
Format settings, BVOP: No
Format settings, QPel: No
Format settings, GMC: No warppoints
Format settings, Matrix: Default (MPEG)
Codec ID: XVID
Codec ID/Hint: XviD
Duration: 52mn 52s
Bit rate: 1 502 Kbps
Width: 640 pixels
Height: 480 pixels
Display aspect ratio: 4/3
Frame rate: 25.000 fps
Resolution: 24 bits
Colorimetry: 4:2:0
Scan type: Progressive
Bits/(Pixel*Frame): 0.196
Stream size: 568 MiB (88%)
Writing library: XviD 1.1.2 (UTC 2006-11-01)



Audio
Format: MPEG Audio
Format version: Version 1
Format profile: Layer 3
Codec ID: 55
Codec ID/Hint: MP3
Duration: 52mn 52s
Bit rate mode: Constant
Bit rate: 192 Kbps
Channel(s): 2 channels
Sampling rate: 44.1 KHz
Resolution: 16 bits
Stream size: 72.6 MiB (11%)
Alignment: Split accross interleaves
Interleave, duration: 80 ms (2.00 video frames)
Writing library: LAMELAME_MAJOR_VERSI


Personal
I'd like to apologise for mistakenly saying on an earlier upload that I had a copy of SEATON's AUNT. I have (most of) SHADES and a radio version of SEATON'S AUNT, I just got confused.


Shades of Darkness: Feet Foremost (10th June 1983) [VHSRip (Xvid)] preview 2


Enjoy!]



===============================

Some of the other rather spiffing shows available now and always if you signup free @ www.TheBox.bz:

Comedy: The Office, Peep Show, Coupling, Chef, Fawlty Towers, Only Fools and Horses, The IT Crowd, Brass Eye, Nathan Barley, Young Ones, Monty Python, Blackadder, Alan Partridge, Father Ted, Coupling, Little Britain, Mr Bean, Extras, Green Wing, Mighty Boosh

Drama: Casualty, Holby City, The Bill, Hustle, Skins, Shameless, Ashes To Ashes

Entertainment: Faking It, Derren Brown, Scrapheap Challenge, Strictly Come Dancing, Wife Swap

Game/Quiz Shows: Whose Line Is It Anyway?, Have I Got News For You, Deal Or No Deal (UK), Q.I.

Education/Documentary: Planet Earth, Horizon, Panorama, Mark Thomas (Comedy) Product

Food: Hell's Kitchen, Jamie Oliver, The F Word, Kitchen Nightmares, Masterchef, Great British Menu, Gordon Ramsay's Cookalong

Home/Property/Garden: Property Ladder, How Clean Is Your House?, Changing Rooms, Grand Designs, Homes Under The Hammer, To Buy Or Not To Buy

Motoring: Top Gear, Fifth Gear

Music: Top Of The Pops, Jools Holland, Glastonbury

Reality: Big Brother, Celebrity Big Brother, I'm a Celebrity - Get Me Out of Here!, Any Dream Will Do, Grease, Pop Idol, Wife Swap, X Factor, Badger Or Bust, Apprentice UK, Dragons' Den, Britain's Got Talent

Sci-Fi: Doctor Who, Red Dwarf, Torchwood, Primeval

Sport: Football (Soccer), Cricket, Rugby, Snooker, Darts, Formula One (F1GP)

Soaps: Eastenders, Coronation Street, Emmerdale, Neighbours, Hollyoaks

Style/Fashion: What Not To Wear, Project Catwalk

Kids: Teletubbies, Blue Peter, Tikkabilla, Andy Pandy, Postman Pat, Shoebox Zoo, Brum, Bob The Builder, Young Dracula, Sarah Jane Adventures, Shaun The Sheep

related torrents

Torrent name

health leech seeds Size
 


comments (0)

Main Menu