Lost

Lost S04E11 German DL WS Satrip Xvid MDK

  • Download 5x Faster
  • Download torrent
  • Direct Download
  • Rate this torrent +  |  -
Lost S04E11 German DL WS Satrip Xvid MDK

Anonymous and Free Direct Download


Torrent info

Name:Lost S04E11 German DL WS Satrip Xvid MDK

Total Size: 399.95 MB

Magnet: Magnet Link

Seeds: 0

Leechers: 0

Stream: Watch Online @ Movie4u

Last Updated: 2015-09-30 00:59:50 (Update Now)

Torrent added: 2008-08-25 00:40:30



VPN For Torrents

Torrent Files List


Lost.S04E11.German.DL.WS.Satrip.Xvid-MDK.avi (Size: 399.95 MB) (Files: 1)

 Lost.S04E11.German.DL.WS.Satrip.Xvid-MDK.avi

399.95 MB
 

tracker

leech seeds
 

Torrent description


Lost

Episode .........: 4x11 Hüttenzauber (Originaltitel: "Cabin Fever")
Release Date ....: 25.08.2008
Audio...............: German/English

Allgemein
Format : AVI
Dateigre : 400 MiB
Duration : 41min
Gesamte Bitrate : 1 357 Kbps

Video
Format : MPEG-4 Visual
Format profile : Streaming [email protected]
Format settings, BVOP : Ja
Format settings, QPel : Nein
Format settings, GMC : No warppoints
Format settings, Matrix : Default
Codec ID : XVID
Codec ID/Hint : XviD
Duration : 41min
Bitrate : 1 153 Kbps
Breite : 640 Pixel
Höhe : 352 Pixel
Bildseitenverhältnis : 16/9
Bildwiederholungsrate : 25,000 FPS
Auflösung : 24 bits
Colorimetry : 4:2:0
Scan type : Progressive
Bits/(Pixel*Frame) : 0.205

Audio #1
Format : MPEG Audio
Format version : Version 1
Format profile : Layer 3
Codec ID : 55
Codec ID/Hint : MP3
Duration : 41min
Bitraten-Modus : Variable
Bitrate : 93,9 Kbps
Minimum bit rate : 32,0 Kbps
Kanäle : 2 Kanäle
Samplingrate : 48,0 KHz
Auflösung : 16 bits
Stream size : 27,7 MiB (7)
Alignment : Aligned on interleaves
Interleave, duration : 24 ms (0,60 video frame)
Interleave, preload duration : 141 ms
verwendete Encoder-Bibliothek : LAME3.97b
Kodierungseinstellungen : VBR (mtrh)

Audio #2
Format : MPEG Audio
Format version : Version 1
Format profile : Layer 3
Codec ID : 55
Codec ID/Hint : MP3
Duration : 41min
Bitraten-Modus : Variable
Bitrate : 89,5 Kbps
Minimum bit rate : 32,0 Kbps
Kanäle : 2 Kanäle
Samplingrate : 48,0 KHz
Auflösung : 16 bits
Stream size : 26,4 MiB (7)
Alignment : Aligned on interleaves
Interleave, duration : 24 ms (0,60 video frame)
Interleave, preload duration : 145 ms
verwendete Encoder-Bibliothek : LAME3.97b
Kodierungseinstellungen : VBR (mtrh)

related torrents

Torrent name

health leech seeds Size
 


comments (0)

Main Menu