UK

Classic Emmerdale Part II (13th July 2006)[TvRip (XVID)]

  • Download 5x Faster
  • Download torrent
  • Direct Download
  • Rate this torrent +  |  -
Classic Emmerdale Part II (13th July 2006)[TvRip (XVID)]

Free and Direct Download with Usenet.nl 300GB+ free


Torrent info

Name:Classic Emmerdale Part II (13th July 2006)[TvRip (XVID)]

Total Size: 179.02 MB

Magnet: Magnet Link

Seeds: 6

Leechers: 0

Stream: Watch Online @ Movie4u

Last Updated: 2010-08-15 18:17:53 (Update Now)

Torrent added: 2009-09-09 08:33:00





Torrent Files List


Classic Emmerdale 2006.07.13.TvRip.Xvid.(4410).Robinhood99.avi (Size: 179.02 MB) (Files: 1)

 Classic Emmerdale 2006.07.13.TvRip.Xvid.(4410).Robinhood99.avi

179.02 MB
 

Announce URL: http://www.thebox.bz:2710/00000000000000000000000000000000/announce

Torrent description

This torrent was uploaded from www.TheBox.bz (signup is open and free) - the home of all British TV



Classic Emmerdale   Part II (13th July 2006)[TvRip (XVID)] preview 0


==ORIGINAL UK AIR DATEs:==
13th July 2006
Episode(S) 4410

==Description==
---------------------------------------------------------------------------------------------

Episode 4410
http://www.itnsource.com/shotlist//ITVProgs/2006/07/13/Y052444094410A/?s=emmerdale+4409
At the show home Jimmy is on his mobile phone. Sadie is in the kitchen at Victoria Cottage. She is sitting down looking at her engagement ring when her mobile phone rings. She gets up to answer and when she looks at the screen and realises it is Jimmy she pulls a face and answers the phone reluctantly asking Jimmy what he wants. He is seen on his mobile phone talking to her saying she knew full well what he wanted, as he starts to walk away from the front of the marquee he tells her that he waited for her. She replies that she is sorry but he breaks her off and says to forget the excuses he wants to see her now and he walks on to the front of the show house. She says that she can't do that and he says that he has to see her. As he is saying this Matthew walks into the room and Sadie ends the call saying thank you for calling. Matthew asks who it was and she says it was her hairdresser cancelling her appointment. He tells her that she looks great and she thanks him as he kisses her on the cheek and then Sadie walks away towards the table. Matthew walks into the kitchen area to make a drink and says that he might go up to see his father later. Sadie asks him why and Matthew asks her why does she think, it is to tell him that they have not engaged. Sadie replies that they will be busy with the opening and Matthew says so much the better it will wipe the smug grin of Jimmy's face. He walks out of the kitchen smiling and Sadie looks away worriedly


---------------------------------------------------------------------------------------------



Approx for each episode:

[SIZE=1]
Format : MPEG-4 Visual
Format profile : Streaming [email protected]
Format settings, BVOP : Yes
Format settings, QPel : No
Format settings, GMC : No warppoints
Format settings, Matrix : Default
Muxing mode : Packed bitstream
Codec ID : XVID
Codec ID/Hint : XviD
Duration : 22mn 44s
Bit rate : 958 Kbps
Width : 640 pixels
Height : 384 pixels
Display aspect ratio : 1.667
Frame rate : 25.000 fps
Resolution : 24 bits
Colorimetry : 4:2:0
Scan type : Progressive
Bits/(Pixel*Frame) : 0.156
Stream size : 156 MiB (87%)
Writing library : XviD 1.0.3 (UTC 2004-12-20)

Format : MPEG Audio
Format version : Version 1
Format profile : Layer 3
Codec ID : 55
Codec ID/Hint : MP3
Duration : 22mn 44s
Bit rate mode : Variable
Bit rate : 130 Kbps
Nominal bit rate : 128 Kbps
Channel(s) : 2 channels
Sampling rate : 48.0 KHz
Resolution : 16 bits
Stream size : 21.2 MiB (12%)
Alignment : Aligned on interleaves
Interleave, duration : 24 ms (0.60 video frame)
Interleave, preload duration : 509 ms
Writing library : LAME3.90.
Encoding settings : ABR




[/SIZE]


===============================

Some of the other rather spiffing shows available now and always if you signup free @ www.TheBox.bz:

Comedy: The Office, Peep Show, Coupling, Chef, Fawlty Towers, Only Fools and Horses, The IT Crowd, Brass Eye, Nathan Barley, Young Ones, Monty Python, Blackadder, Alan Partridge, Father Ted, Coupling, Little Britain, Mr Bean, Extras, Green Wing, Mighty Boosh

Drama: Casualty, Holby City, The Bill, Hustle, Skins, Shameless, Ashes To Ashes

Entertainment: Faking It, Derren Brown, Scrapheap Challenge, Strictly Come Dancing, Wife Swap

Game/Quiz Shows: Whose Line Is It Anyway?, Have I Got News For You, Deal Or No Deal (UK), Q.I.

Education/Documentary: Planet Earth, Horizon, Panorama, Mark Thomas (Comedy) Product

Food: Hell's Kitchen, Jamie Oliver, The F Word, Kitchen Nightmares, Masterchef, Great British Menu, Gordon Ramsay's Cookalong

Home/Property/Garden: Property Ladder, How Clean Is Your House?, Changing Rooms, Grand Designs, Homes Under The Hammer, To Buy Or Not To Buy

Motoring: Top Gear, Fifth Gear

Music: Top Of The Pops, Jools Holland, Glastonbury

Reality: Big Brother, Celebrity Big Brother, I'm a Celebrity - Get Me Out of Here!, Any Dream Will Do, Grease, Pop Idol, Wife Swap, X Factor, Badger Or Bust, Apprentice UK, Dragons' Den, Britain's Got Talent

Sci-Fi: Doctor Who, Red Dwarf, Torchwood, Primeval

Sport: Football (Soccer), Cricket, Rugby, Snooker, Darts, Formula One (F1GP)

Soaps: Eastenders, Coronation Street, Emmerdale, Neighbours, Hollyoaks

Style/Fashion: What Not To Wear, Project Catwalk

Kids: Teletubbies, Blue Peter, Tikkabilla, Andy Pandy, Postman Pat, Shoebox Zoo, Brum, Bob The Builder, Young Dracula, Sarah Jane Adventures, Shaun The Sheep

related torrents

Torrent name

health leech seeds Size
 

comments (0)

Main Menu