UK

Classic Emmerdale (15th October 2004)[WS TvRip (XVID)]

  • Download 5x Faster
  • Download torrent
  • Direct Download
  • Rate this torrent +  |  -
Classic Emmerdale (15th October 2004)[WS TvRip (XVID)]

Anonymous and Free Direct Download 300GB+


Torrent info

Name:Classic Emmerdale (15th October 2004)[WS TvRip (XVID)]

Total Size: 174.95 MB

Magnet: Magnet Link

Seeds: 0

Leechers: 0

Stream: Watch Online @ Movie4u

Last Updated: 2015-08-02 15:02:59 (Update Now)

Torrent added: 2009-09-09 08:16:46



VPN For Torrents

Torrent Files List


Classic Emmerdale 2004.10.15.TvRip.Xvid.(3871).Robinhood99.avi (Size: 174.95 MB) (Files: 1)

 Classic Emmerdale 2004.10.15.TvRip.Xvid.(3871).Robinhood99.avi

174.95 MB
 

tracker

leech seeds
 

Torrent description

This torrent was uploaded from www.TheBox.bz (signup is open and free) - the home of all British TV

These Episodes are shown in Canada on "CBC CBET". They are Classic Emmerdale to those in the UK, but to everyone
in North America...They are new.

Canadian Air Date: September 8, 2008

Classic Emmerdale (15th October 2004)[WS TvRip (XVID)] preview 0

==ORIGINAL UK AIR DATE:==
15 October 2004
Episode #3871

==Description==
---------------------------------------------------------------------------------------------
Click Here For Link
Steph (Lorraine Chase) is annoyed when Turner (Richard Thorp) refuses to take his pills, but believes she has won when he pops them in his mouth. Steph is unaware that as she turns her back he defiantly spits them into the bin.

Turner later manages to get out of bed and is horrified when he looks out of the window to see Steph selling his beloved motorbike. When Turner confronts her she panics and pretends to cry, claiming that the B&B is going under and she was desperate.

Steph goes to get him a drink promising to tell him everything on her return. Before coming back she spikes his drink with pills and before long he is too drowsy to talk. As he falls asleep, she quietly warns him that he will be going the same way Shelly did if he doesn’t watch it. Will Steph really carry out her threats?

Meanwhile, Paul (Mathew Bose) gets a shock when Rodney (Patrick Mower) turns up at the pub and invites him for lunch. Rodney pays Marlon (Mark Charnock) to cook for them and goes to town with an expensive bottle of wine. Nicola (Nicola Wheeler) is thrilled he is making the effort but Paul feels uncomfortable. How will Paul react when Rodney spends the entire time talking about himself?

Over at the Dingles', Zak (Steve Halliwell) asks Sam (James Hooton) to help him organise a Dingle shindig and claims he doesn’t mind that Sam has invited Solomon Dingle, given that he helped him out in prison. Will Solomon prove to be a troublesome party guest?

----------------------------------------------------------------------------------------------

Format : MPEG-4 Visual
Format profile : Streaming [email protected]
Format settings, BVOP : Yes
Format settings, QPel : No
Format settings, GMC : No warppoints
Format settings, Matrix : Default
Muxing mode : Packet Bitstream
Codec ID : XVID
Codec ID/Hint : XviD
Duration : 22mn 30s
Bit rate : 939 Kbps
Width : 640 pixels
Height : 352 pixels
Display aspect ratio : 16/9
Frame rate : 29.970 fps
Resolution : 24 bits
Colorimetry : 4:2:0
Scan type : Progressive
Bits/(Pixel*Frame) : 0.139
Stream size : 151 MiB (86%)
Writing library : XviD 1.0.3 (UTC 2004-12-20)


Format : MPEG Audio
Format version : Version 1
Format profile : Layer 3
Codec ID : 55
Codec ID/Hint : MP3
Duration : 22mn 30s
Bit rate mode : Variable
Bit rate : 133 Kbps
Nominal bit rate : 128 Kbps
Channel(s) : 2 channels
Sampling rate : 48.0 KHz
Resolution : 16 bits
Stream size : 21.4 MiB (12%)
Alignment : Aligned on interleaves
Interleave, duration : 24 ms (0.72 video frame)
Interleave, preload duration : 493 ms
Writing library : LAME3.90.
Encoding settings : ABR


===============================

Some of the other rather spiffing shows available now and always if you signup free @ www.TheBox.bz:

Comedy: The Office, Peep Show, Coupling, Chef, Fawlty Towers, Only Fools and Horses, The IT Crowd, Brass Eye, Nathan Barley, Young Ones, Monty Python, Blackadder, Alan Partridge, Father Ted, Coupling, Little Britain, Mr Bean, Extras, Green Wing, Mighty Boosh

Drama: Casualty, Holby City, The Bill, Hustle, Skins, Shameless, Ashes To Ashes

Entertainment: Faking It, Derren Brown, Scrapheap Challenge, Strictly Come Dancing, Wife Swap

Game/Quiz Shows: Whose Line Is It Anyway?, Have I Got News For You, Deal Or No Deal (UK), Q.I.

Education/Documentary: Planet Earth, Horizon, Panorama, Mark Thomas (Comedy) Product

Food: Hell's Kitchen, Jamie Oliver, The F Word, Kitchen Nightmares, Masterchef, Great British Menu, Gordon Ramsay's Cookalong

Home/Property/Garden: Property Ladder, How Clean Is Your House?, Changing Rooms, Grand Designs, Homes Under The Hammer, To Buy Or Not To Buy

Motoring: Top Gear, Fifth Gear

Music: Top Of The Pops, Jools Holland, Glastonbury

Reality: Big Brother, Celebrity Big Brother, I'm a Celebrity - Get Me Out of Here!, Any Dream Will Do, Grease, Pop Idol, Wife Swap, X Factor, Badger Or Bust, Apprentice UK, Dragons' Den, Britain's Got Talent

Sci-Fi: Doctor Who, Red Dwarf, Torchwood, Primeval

Sport: Football (Soccer), Cricket, Rugby, Snooker, Darts, Formula One (F1GP)

Soaps: Eastenders, Coronation Street, Emmerdale, Neighbours, Hollyoaks

Style/Fashion: What Not To Wear, Project Catwalk

Kids: Teletubbies, Blue Peter, Tikkabilla, Andy Pandy, Postman Pat, Shoebox Zoo, Brum, Bob The Builder, Young Dracula, Sarah Jane Adventures, Shaun The Sheep

related torrents

Torrent name

health leech seeds Size
 


comments (0)

Main Menu