UK

Classic Emmerdale (11th October 2004)[WS TvRip (XVID)]

  • Download 5x Faster
  • Download torrent
  • Direct Download
  • Rate this torrent +  |  -
Classic Emmerdale (11th October 2004)[WS TvRip (XVID)]

Anonymous and Direct Download 300GB+ free


Torrent info

Name:Classic Emmerdale (11th October 2004)[WS TvRip (XVID)]

Total Size: 174.99 MB

Magnet: Magnet Link

Seeds: 0

Leechers: 0

Stream: Watch Online @ Movie4u

Last Updated: 2009-11-23 15:21:15 (Update Now)

Torrent added: 2009-09-09 08:15:59




Torrent Files List


Classic Emmerdale 2004.10.11.TvRip.Xvid.(3867).Robinhood99.avi (Size: 174.99 MB) (Files: 1)

 Classic Emmerdale 2004.10.11.TvRip.Xvid.(3867).Robinhood99.avi

174.99 MB
 

Announce URL: http://www.thebox.bz:2710/00000000000000000000000000000000/announce

Torrent description

This torrent was uploaded from www.TheBox.bz (signup is open and free) - the home of all British TV


These Episodes are shown in Canada on "CBC CBET". They are Classic Emmerdale to those in the UK, but to everyone
in North America...They are new.

Canadian Air Date: September 2, 2008

Classic Emmerdale (11th October 2004)[WS TvRip (XVID)] preview 0

==ORIGINAL UK AIR DATE:==
11 October 2004
Episode #3867

==Description==
---------------------------------------------------------------------------------------------
Click Here For Link

Viv (Deena Payne) organises a community action meeting which descends into chaos as the locals vocalise their feelings about sharing the village with a convicted rapist.

Back at Jacobs Fold, Len (Peter Martin) jumps up when there is a hammering at the door and is horrified when their window is smashed seconds later. Incensed Len marches outside to find protesting villagers at their door. Is this just the beginning of the torment Pearl (Meg Johnson) and Len are set to endure?

Meanwhile, Nicola (Nicola Wheeler) accuses Rodney (Patrick Mower) of having been miserable ever since the wedding. Determined to prove his daughter is wrong, he agrees to organise a men only poker night. Nicola later tells Paul (Mathew Bose), but he is convinced that he won’t be invited.

Elsewhere, Debbie (Charley Webb) tells Andy (Kelvin Fletcher) she would rather they end their relationship than risk the consequences of her dad finding out. Andy is annoyed that she suddenly seems to be taking Cain’s (Jeff Hordley) side but she explains it is best for everyone. Andy is left quietly licking his wounds.

----------------------------------------------------------------------------------------------

Format : MPEG-4 Visual
Format profile : Streaming [email protected]
Format settings, BVOP : Yes
Format settings, QPel : No
Format settings, GMC : No warppoints
Format settings, Matrix : Default
Muxing mode : Packet Bitstream
Codec ID : XVID
Codec ID/Hint : XviD
Duration : 22mn 28s
Bit rate : 941 Kbps
Width : 640 pixels
Height : 352 pixels
Display aspect ratio : 16/9
Frame rate : 29.970 fps
Resolution : 24 bits
Colorimetry : 4:2:0
Scan type : Progressive
Bits/(Pixel*Frame) : 0.139
Stream size : 151 MiB (86%)
Writing library : XviD 1.0.3 (UTC 2004-12-20)


Format : MPEG Audio
Format version : Version 1
Format profile : Layer 3
Codec ID : 55
Codec ID/Hint : MP3
Duration : 22mn 28s
Bit rate mode : Variable
Bit rate : 134 Kbps
Nominal bit rate : 128 Kbps
Channel(s) : 2 channels
Sampling rate : 48.0 KHz
Resolution : 16 bits
Stream size : 21.5 MiB (12%)
Alignment : Aligned on interleaves
Interleave, duration : 24 ms (0.72 video frame)
Interleave, preload duration : 480 ms
Writing library : LAME3.90.
Encoding settings : ABR

===============================

Some of the other rather spiffing shows available now and always if you signup free @ www.TheBox.bz:

Comedy: The Office, Peep Show, Coupling, Chef, Fawlty Towers, Only Fools and Horses, The IT Crowd, Brass Eye, Nathan Barley, Young Ones, Monty Python, Blackadder, Alan Partridge, Father Ted, Coupling, Little Britain, Mr Bean, Extras, Green Wing, Mighty Boosh

Drama: Casualty, Holby City, The Bill, Hustle, Skins, Shameless, Ashes To Ashes

Entertainment: Faking It, Derren Brown, Scrapheap Challenge, Strictly Come Dancing, Wife Swap

Game/Quiz Shows: Whose Line Is It Anyway?, Have I Got News For You, Deal Or No Deal (UK), Q.I.

Education/Documentary: Planet Earth, Horizon, Panorama, Mark Thomas (Comedy) Product

Food: Hell's Kitchen, Jamie Oliver, The F Word, Kitchen Nightmares, Masterchef, Great British Menu, Gordon Ramsay's Cookalong

Home/Property/Garden: Property Ladder, How Clean Is Your House?, Changing Rooms, Grand Designs, Homes Under The Hammer, To Buy Or Not To Buy

Motoring: Top Gear, Fifth Gear

Music: Top Of The Pops, Jools Holland, Glastonbury

Reality: Big Brother, Celebrity Big Brother, I'm a Celebrity - Get Me Out of Here!, Any Dream Will Do, Grease, Pop Idol, Wife Swap, X Factor, Badger Or Bust, Apprentice UK, Dragons' Den, Britain's Got Talent

Sci-Fi: Doctor Who, Red Dwarf, Torchwood, Primeval

Sport: Football (Soccer), Cricket, Rugby, Snooker, Darts, Formula One (F1GP)

Soaps: Eastenders, Coronation Street, Emmerdale, Neighbours, Hollyoaks

Style/Fashion: What Not To Wear, Project Catwalk

Kids: Teletubbies, Blue Peter, Tikkabilla, Andy Pandy, Postman Pat, Shoebox Zoo, Brum, Bob The Builder, Young Dracula, Sarah Jane Adventures, Shaun The Sheep

related torrents

Torrent name

health leech seeds Size
 


comments (0)

Main Menu