UK

SuperDoctors (4th September 2008) [PDTV (Xvid)]

  • Download 5x Faster
  • Download torrent
  • Direct Download
  • Rate this torrent +  |  -
SuperDoctors (4th September 2008) [PDTV (Xvid)]

Anonymous and free Direct Download 300GB+


Torrent info

Name:SuperDoctors (4th September 2008) [PDTV (Xvid)]

Total Size: 465.96 MB

Magnet: Magnet Link

Seeds: 1

Leechers: 0

Stream: Watch Online @ Movie4u

Last Updated: 2010-09-30 05:07:55 (Update Now)

Torrent added: 2009-09-09 08:10:14



SpyOFF VPN

Torrent Files List


SuperDoctors (4th September 2008) [PDTV (Xvid)].avi (Size: 465.96 MB) (Files: 2)

 SuperDoctors (4th September 2008) [PDTV (Xvid)].avi

465.96 MB

 SuperDoctors (4th September 2008) [PDTV (Xvid)].nfo

2.72 KB
 

Announce URL: http://www.thebox.bz:2710/00000000000000000000000000000000/announce

Torrent description

This torrent was uploaded from www.TheBox.bz (signup is open and free) - the home of all British TV

SuperDoctors (4th September 2008) [PDTV (Xvid)].avi

SuperDoctors (Documentary)
Time - 21:00 - 22:00 (1 hour long)
When - Thursday 4th September on BBC 1
One Small Step. Series 1, episode 3.
Final in the series examining new medical frontiers looks at the opposite of the high-cost/high-technology world people expect to coincide with cutting-edge medical care. The programme follows the work of orthopaedic surgeon Steve Mannion, who has devoted his life to working in underdeveloped countries. It examines his groundbreaking technique for treating club feet - both in Africa and Britain - and tells the story of Steve's struggle to overcome deep-set traditions and practices.
(Stereo, Last In Series, Widescreen, Subtitles, Audio Described)


Video info:-

Complete name : SuperDoctors (4th September 2008) [PDTV (Xvid)].avi
Format : AVI
Format/Info : Audio Video Interleave
File size : 466 MiB
Duration : 59mn 17s
Overal bit rate : 1099 Kbps
Writing application : VirtualDubMod 1.5.4.1 (build 2178/release)
Writing library : VirtualDubMod build 2178/release

Video
Format : MPEG-4 Visual
Format settings, BVOP : No
Format settings, QPel : No
Format settings, GMC : 0 warppoint
Format settings, Matrix : Default
Codec ID : XVID
Codec ID/Hint : XviD
Duration : 59mn 17s
Bit rate : 980 Kbps
Width : 640 pixels
Height : 368 pixels
Display aspect ratio : 16/9
Frame rate : 25.000 fps
Resolution : 8 bits
Colorimetry : 4:2:0
Scan type : Progressive
Bits/(Pixel*Frame) : 0.166
Stream size : 415 MiB
Writing library : XviD 1.0.1
Writing library/Date : UTC 2004-06-05

Audio
Format : MPEG Audio
Format version : Version 1 / Layer 3
Codec ID : 55
Codec ID/Hint : MP3
Duration : 59mn 17s
Bit rate mode : VBR
Bit rate : 106 Kbps
Minimum bit rate : 128 Kbps
Channel(s) : 2 channels
Sampling rate : 48.0 KHz
Resolution : 16 bits
Stream size : 45.0 MiB
Writing library : LAME3.97
Encoding settings : ABR



===============================

Some of the other rather spiffing shows available now and always if you signup free @ www.TheBox.bz:

Comedy: The Office, Peep Show, Coupling, Chef, Fawlty Towers, Only Fools and Horses, The IT Crowd, Brass Eye, Nathan Barley, Young Ones, Monty Python, Blackadder, Alan Partridge, Father Ted, Coupling, Little Britain, Mr Bean, Extras, Green Wing, Mighty Boosh

Drama: Casualty, Holby City, The Bill, Hustle, Skins, Shameless, Ashes To Ashes

Entertainment: Faking It, Derren Brown, Scrapheap Challenge, Strictly Come Dancing, Wife Swap

Game/Quiz Shows: Whose Line Is It Anyway?, Have I Got News For You, Deal Or No Deal (UK), Q.I.

Education/Documentary: Planet Earth, Horizon, Panorama, Mark Thomas (Comedy) Product

Food: Hell's Kitchen, Jamie Oliver, The F Word, Kitchen Nightmares, Masterchef, Great British Menu, Gordon Ramsay's Cookalong

Home/Property/Garden: Property Ladder, How Clean Is Your House?, Changing Rooms, Grand Designs, Homes Under The Hammer, To Buy Or Not To Buy

Motoring: Top Gear, Fifth Gear

Music: Top Of The Pops, Jools Holland, Glastonbury

Reality: Big Brother, Celebrity Big Brother, I'm a Celebrity - Get Me Out of Here!, Any Dream Will Do, Grease, Pop Idol, Wife Swap, X Factor, Badger Or Bust, Apprentice UK, Dragons' Den, Britain's Got Talent

Sci-Fi: Doctor Who, Red Dwarf, Torchwood, Primeval

Sport: Football (Soccer), Cricket, Rugby, Snooker, Darts, Formula One (F1GP)

Soaps: Eastenders, Coronation Street, Emmerdale, Neighbours, Hollyoaks

Style/Fashion: What Not To Wear, Project Catwalk

Kids: Teletubbies, Blue Peter, Tikkabilla, Andy Pandy, Postman Pat, Shoebox Zoo, Brum, Bob The Builder, Young Dracula, Sarah Jane Adventures, Shaun The Sheep

related torrents

Torrent name

health leech seeds Size
 


comments (0)

Main Menu