UK

Classic Emmerdale (10th October 2004)[WS TvRip (XVID)]

  • Download 5x Faster
  • Download torrent
  • Direct Download
  • Rate this torrent +  |  -
Classic Emmerdale (10th October 2004)[WS TvRip (XVID)]

Anonymous and Free Direct Download 300GB+


Torrent info

Name:Classic Emmerdale (10th October 2004)[WS TvRip (XVID)]

Total Size: 174.95 MB

Magnet: Magnet Link

Seeds: 0

Leechers: 0

Stream: Watch Online @ Movie4u

Last Updated: 2009-11-23 15:06:30 (Update Now)

Torrent added: 2009-09-09 08:04:21



VPN For Torrents

Torrent Files List


Classic Emmerdale 2004.10.10.TvRip.Xvid.(3866).Robinhood99.avi (Size: 174.95 MB) (Files: 1)

 Classic Emmerdale 2004.10.10.TvRip.Xvid.(3866).Robinhood99.avi

174.95 MB
 

Announce URL: http://www.thebox.bz:2710/00000000000000000000000000000000/announce

Torrent description

This torrent was uploaded from www.TheBox.bz (signup is open and free) - the home of all British TV


These Episodes are shown in Canada on "CBC CBET". They are Classic Emmerdale to those in the UK, but to everyone
in North America...They are new.

Canadian Air Date: September 1, 2008

Classic Emmerdale (10th October 2004)[WS TvRip (XVID)] preview 0

==ORIGINAL UK AIR DATE:==
10 October 2004
Episode #3866

==Description==
---------------------------------------------------------------------------------------------
Click Here For Link

There is uproar when Frank Bernard arrives in the village
Viv (Deena Payne) and Donna (Verity Rushworth) are charmed by Frank (Rob Parry) as they serve him in the post office, unaware that he is the convicted rapist they are campaigning to keep out of the village.

Frank later enjoys mingling with the locals in the Woolpack until Louise (Emily Symons) asks his name. Realising that he is Pearl’s (Meg Johnson) son, there is uproar amongst the villagers and Syd (Nathan Gladwell) and Scott (Ben Freeman) quickly remove him from the pub.

Elsewhere, Zak (Steve Halliwell) is appalled when he sees Debbie’s (Charley Webb) bruised face. She lies that it happened while she was messing around with Daz, but realising there is more to it Zak threatens Cain (Jeff Hordley) that if he ever touches her again he’ll have him to deal with.

Later Debbie sees Ethan (Liam O’Brien) and apologises for what happened, promising that Cain will leave him alone now. Still uncertain of what the future holds, Ethan decides to go away for a while.

Meanwhile, Paul (Mathew Bose) suggests to Nicola (Nicola Wheeler) and Simon (Dale Meeks) that they all go out for a Sunday lunch, courtesy of Thelma Louise’s credit card. They invite Rodney (Patrick Mower) but wanting to visit Diane in hospital he claims to have already made plans.

----------------------------------------------------------------------------------------------


Format : MPEG-4 Visual
Format profile : Streaming Video@L1
Format settings, BVOP : Yes
Format settings, QPel : No
Format settings, GMC : No warppoints
Format settings, Matrix : Default
Muxing mode : Packet Bitstream
Codec ID : XVID
Codec ID/Hint : XviD
Duration : 22mn 19s
Bit rate : 949 Kbps
Width : 640 pixels
Height : 352 pixels
Display aspect ratio : 16/9
Frame rate : 29.970 fps
Resolution : 24 bits
Colorimetry : 4:2:0
Scan type : Progressive
Bits/(Pixel*Frame) : 0.140
Stream size : 152 MiB (87%)
Writing library : XviD 1.0.3 (UTC 2004-12-20)


Format : MPEG Audio
Format version : Version 1
Format profile : Layer 3
Codec ID : 55
Codec ID/Hint : MP3
Duration : 22mn 19s
Bit rate mode : Variable
Bit rate : 133 Kbps
Nominal bit rate : 128 Kbps
Channel(s) : 2 channels
Sampling rate : 48.0 KHz
Resolution : 16 bits
Stream size : 21.2 MiB (12%)
Alignment : Aligned on interleaves
Interleave, duration : 24 ms (0.72 video frame)
Interleave, preload duration : 459 ms
Writing library : LAME3.90.
Encoding settings : ABR

===============================

Some of the other rather spiffing shows available now and always if you signup free @ www.TheBox.bz:

Comedy: The Office, Peep Show, Coupling, Chef, Fawlty Towers, Only Fools and Horses, The IT Crowd, Brass Eye, Nathan Barley, Young Ones, Monty Python, Blackadder, Alan Partridge, Father Ted, Coupling, Little Britain, Mr Bean, Extras, Green Wing, Mighty Boosh

Drama: Casualty, Holby City, The Bill, Hustle, Skins, Shameless, Ashes To Ashes

Entertainment: Faking It, Derren Brown, Scrapheap Challenge, Strictly Come Dancing, Wife Swap

Game/Quiz Shows: Whose Line Is It Anyway?, Have I Got News For You, Deal Or No Deal (UK), Q.I.

Education/Documentary: Planet Earth, Horizon, Panorama, Mark Thomas (Comedy) Product

Food: Hell's Kitchen, Jamie Oliver, The F Word, Kitchen Nightmares, Masterchef, Great British Menu, Gordon Ramsay's Cookalong

Home/Property/Garden: Property Ladder, How Clean Is Your House?, Changing Rooms, Grand Designs, Homes Under The Hammer, To Buy Or Not To Buy

Motoring: Top Gear, Fifth Gear

Music: Top Of The Pops, Jools Holland, Glastonbury

Reality: Big Brother, Celebrity Big Brother, I'm a Celebrity - Get Me Out of Here!, Any Dream Will Do, Grease, Pop Idol, Wife Swap, X Factor, Badger Or Bust, Apprentice UK, Dragons' Den, Britain's Got Talent

Sci-Fi: Doctor Who, Red Dwarf, Torchwood, Primeval

Sport: Football (Soccer), Cricket, Rugby, Snooker, Darts, Formula One (F1GP)

Soaps: Eastenders, Coronation Street, Emmerdale, Neighbours, Hollyoaks

Style/Fashion: What Not To Wear, Project Catwalk

Kids: Teletubbies, Blue Peter, Tikkabilla, Andy Pandy, Postman Pat, Shoebox Zoo, Brum, Bob The Builder, Young Dracula, Sarah Jane Adventures, Shaun The Sheep

related torrents

Torrent name

health leech seeds Size
 


comments (0)

Main Menu