Action

Race To Witch Mountain (2009) DVDRip MAXSPEED

  • Download 5x Faster
  • Download torrent
  • Direct Download
  • Rate this torrent +  |  -
Race To Witch Mountain (2009) DVDRip MAXSPEED

Anonymous and Free Direct Download 300GB+


Torrent info

Name:Race To Witch Mountain (2009) DVDRip MAXSPEED

Total Size: 701.40 MB

Magnet: Magnet Link

Seeds: 131

Leechers: 12

Stream: Watch Online @ Movie4u

Last Updated: 0000-00-00 00:00:00 (Update Now)

Torrent added: 2009-09-09 08:01:45



VPN For Torrents

Torrent Files List


Race To Witch Mountain (2009) DVDRip-MAXSPEED www.torentz.3xforum.ro.avi (Size: 701.40 MB) (Files: 5)

 Race To Witch Mountain (2009) DVDRip-MAXSPEED www.torentz.3xforum.ro.avi

701.24 MB

 screencaps.jpg

165.02 KB

 Race To Witch Mountain (2009) DVDRip-MAXSPEED.nfo

2.41 KB

 Torrent downloaded from Demonoid.com.txt

0.05 KB

 tracked_by_h33t_com.txt

0.02 KB
 

Announce URL: http://www.h33t.com:3310/announce

Torrent description


SCREENSHOTS[MUST SEE BEFORE DOWNLOADING TORRENT]

Race To Witch Mountain (2009) DVDRip MAXSPEED preview 0.html

Race To Witch Mountain (2009) DVDRip MAXSPEED preview 1.html

Race To Witch Mountain (2009) DVDRip MAXSPEED preview 2.html


Race To Witch Mountain (2009) DVDRip MAXSPEED preview 3.html


Format : AVI
Format/Info : Audio Video Interleave
File size : 701 MiB
Duration : 1h 38mn
Overall bit rate : 997 Kbps
Writing application : Nandub v1.0rc2
Writing library : Nandub build 1852/release

Video
Format : MPEG-4 Visual
Format profile : Streaming [email protected]
Format settings, BVOP : Yes
Format settings, QPel : No
Format settings, GMC : No warppoints
Format settings, Matrix : Default (H.263)
Codec ID : XVID
Codec ID/Hint : XviD
Duration : 1h 38mn
Bit rate : 824 Kbps
Width : 624 pixels
Height : 256 pixels
Display aspect ratio : 2.438
Frame rate : 23.976 fps
Resolution : 24 bits
Colorimetry : 4:2:0
Scan type : Progressive
Bits/(Pixel*Frame) : 0.215
Stream size : 579 MiB (83%)
Writing library : XviD 1.1.2 (UTC 2006-11-01)

Audio
Format : MPEG Audio
Format version : Version 1
Format profile : Layer 3
Codec ID : 55
Codec ID/Hint : MP3
Duration : 1h 38mn
Bit rate mode : Variable
Bit rate : 161 Kbps
Nominal bit rate : 160 Kbps
Channel(s) : 2 channels
Sampling rate : 48.0 KHz
Resolution : 16 bits
Video delay : 1s 584ms
Stream size : 113 MiB (16%)
Alignment : Split accross interleaves
Interleave, duration : 24 ms (0.58 video frame)
Interleave, preload duration : 1145 ms
Writing library : LAME3.90.
Encoding settings : -m j -V 4 -q 2 -lowpass 18 --abr 160

PLEASE SEED ITS MY REQUEST TO YOU FELLOWS
CREDIT TO ORIGNAL RIPPER
Dont Forget to Hit Thanks

related torrents

Torrent name

health leech seeds Size
 


comments (0)

Main Menu