Action

Fast and Furious 4 (2009) DVDRip MAXSPEED

  • Download 5x Faster
  • Download torrent
  • Direct Download
  • Rate this torrent +  |  -
Fast and Furious 4 (2009) DVDRip MAXSPEED

Anonymous and Free Direct Download 300GB+


Torrent info

Name:Fast and Furious 4 (2009) DVDRip MAXSPEED

Total Size: 701.74 MB

Magnet: Magnet Link

Seeds: 2

Leechers: 0

Stream: Watch Online @ Movie4u

Last Updated: 2017-04-05 19:35:22 (Update Now)

Torrent added: 2009-09-09 08:01:14



VPN For Torrents

Torrent Files List


Fast and Furious (2009) DVDRip-MAXSPEED www.torentz.3xforum.ro.avi (Size: 701.74 MB) (Files: 5)

 Fast and Furious (2009) DVDRip-MAXSPEED www.torentz.3xforum.ro.avi

701.52 MB

 screencaps.jpg

220.59 KB

 Fast and Furious (2009) DVDRip-MAXSPEED.nfo

2.34 KB

 Torrent downloaded from Demonoid.com.txt

0.05 KB

 tracked_by_h33t_com.txt

0.02 KB
 

tracker

leech seeds
 

Torrent description

SCREENSHOTS[MUST SEE BEFORE DOWNLOADING TORRENT]

Fast and Furious 4 (2009) DVDRip MAXSPEED preview 4" border="0" alt="Fast and Furious 4 (2009) DVDRip MAXSPEED preview 0"/>.html

Fast and Furious 4 (2009) DVDRip MAXSPEED preview 1.html

Fast and Furious 4 (2009) DVDRip MAXSPEED preview 2.html

Fast and Furious 4 (2009) DVDRip MAXSPEED preview 3.html

Fast and Furious 4 (2009) DVDRip MAXSPEED preview 4" border="0" alt="Fast and Furious 4 (2009) DVDRip MAXSPEED preview 0"/>.html

Format : AVI
Format/Info : Audio Video Interleave
File size : 702 MiB
Duration : 1h 45mn
Overall bit rate : 927 Kbps
Writing application : Hyper HD Xvid
Writing library : VirtualDub build 31953/release
Original source form : MAX TORRENTZ
Copyright : SIGISMUNT

Video
Format : MPEG-4 Visual
Format profile : Streaming [email protected]
Format settings, BVOP : Yes
Format settings, QPel : No
Format settings, GMC : No warppoints
Format settings, Matrix : Default (H.263)
Muxing mode : Packed bitstream
Codec ID : XVID
Codec ID/Hint : XviD
Duration : 1h 45mn
Bit rate : 813 Kbps
Width : 672 pixels
Height : 288 pixels
Display aspect ratio : 2.35
Frame rate : 23.976 fps
Resolution : 24 bits
Colorimetry : 4:2:0
Scan type : Progressive
Bits/(Pixel*Frame) : 0.175
Stream size : 616 MiB (88%)
Writing library : XviD 1.2.1 (UTC 2008-12-04)

Audio
Format : MPEG Audio
Format version : Version 1
Format profile : Layer 3
Codec ID : 55
Codec ID/Hint : MP3
Duration : 1h 45mn
Bit rate mode : Variable
Bit rate : 101 Kbps
Channel(s) : 2 channels
Sampling rate : 44.1 KHz
Resolution : 16 bits
Stream size : 76.4 MiB (11%)
Alignment : Aligned on interleaves
Interleave, duration : 26 ms (0.63 video frame)
Interleave, preload duration : 344 ms

related torrents

Torrent name

health leech seeds Size
 


comments (0)

Main Menu