UK

Classic Emmerdale (23rd 28th July 2006) [TvRip (XviD)]

  • Download 5x Faster
  • Download torrent
  • Direct Download
  • Rate this torrent +  |  -
Classic Emmerdale (23rd 28th July 2006) [TvRip (XviD)]

Anonymous and Free Direct Download 300GB+


Torrent info

Name:Classic Emmerdale (23rd 28th July 2006) [TvRip (XviD)]

Total Size: 1.03 GB

Magnet: Magnet Link

Seeds: 0

Leechers: 0

Stream: Watch Online @ Movie4u

Last Updated: 2015-09-08 05:18:59 (Update Now)

Torrent added: 2009-09-09 07:57:13



VPN For Torrents

Torrent Files List


Classic Emmerdale 2006.07.23.TvRip.Xvid.(4418).Robinhood99.avi (Size: 1.03 GB) (Files: 6)

 Classic Emmerdale 2006.07.23.TvRip.Xvid.(4418).Robinhood99.avi

176.08 MB

 Classic Emmerdale 2006.07.24.TvRip.Xvid.(4419).Robinhood99.avi

176.04 MB

 Classic Emmerdale 2006.07.25.TvRip.Xvid.(4420).Robinhood99.avi

176.26 MB

 Classic Emmerdale 2006.07.26.TvRip.Xvid.(4421).Robinhood99.avi

176.00 MB

 Classic Emmerdale 2006.07.27.TvRip.Xvid.(4422).Robinhood99.avi

176.05 MB

 Classic Emmerdale 2006.07.28.TvRip.Xvid.(4423).Robinhood99.avi

175.99 MB
 

tracker

leech seeds
 

Torrent description

This torrent was uploaded from www.TheBox.bz (signup is open and free) - the home of all British TV



Classic Emmerdale (23rd   28th July 2006) [TvRip (XviD)] preview 0


==ORIGINAL UK AIR DATEs:==
23-28 July 2006
Episode(S) 4418-4423

==Description==
---------------------------------------------------------------------------------------------


JULY 23/4418
Eric admits to the police he loaned Adam money to fund his getaway; Bob is horrified by Terry and Jean's actions; and Diane encourages Alice to sue the health authority.

JULY 24/4419
Steph's attempt to get on her with her life comes to a dead halt; Simon is pleased to receive a text from Tash; and Val is determined that Noreen will not be forgotten.

JULY 25/4420
Steph refuses to plead unfit to go to trial; a devastated Simon misreads Diane's words of encouragement; and Viv and Jasmine have something in common.

JULY 26/44421
Ashley and Sandy make Jasmine go to the doctor’s when she is too ill to go to the funeral; Viv has some shocking news; and get your hankies out as the day of dawns funeral has arrived.

JULY 27/4422
Matthew tells Tom about Cain and Sadie; Alice's life gets even harder; and Paul gives Bob some good advice about Viv.

JULY 28/4423
Alice's cancer is getting the better of her but she refuses to go to a hospice; Sandy overhears Jasmine rearranging her appointment at the abortion clinic; and Matthew and sadie are at loggerheads at the haulage yardoffice.



---------------------------------------------------------------------------------------------



Approx for each episode:




Format : MPEG-4 Visual
Format profile : Streaming [email protected]
Format settings, BVOP : Yes
Format settings, QPel : No
Format settings, GMC : No warppoints
Format settings, Matrix : Default
Muxing mode : Packed bitstream
Codec ID : XVID
Codec ID/Hint : XviD
Duration : 22mn 22s
Bit rate : 956 Kbps
Width : 640 pixels
Height : 384 pixels
Display aspect ratio : 1.667
frame rate : 25.000 fps
Resolution : 24 bits
Colorimetry : 4:2:0
Scan type : Progressive
Bits/(Pixel*frame) : 0.156
Stream size : 153 MiB (87%)
Writing library : XviD 1.0.3 (UTC 2004-12-20)

Format : MPEG Audio
Format version : Version 1
Format profile : Layer 3
Codec ID : 55
Codec ID/Hint : MP3
Duration : 22mn 22s
Bit rate mode : Variable
Bit rate : 130 Kbps
Nominal bit rate : 128 Kbps
Channel(s) : 2 channels
Sampling rate : 48.0 KHz
Resolution : 16 bits
Stream size : 20.8 MiB (12%)
Alignment : Aligned on interleaves
Interleave, duration : 24 ms (0.60 video frame)
Interleave, preload duration : 520 ms
Writing library : LAME3.90.
Encoding settings : ABR





===============================

Some of the other rather spiffing shows available now and always if you signup free @ www.TheBox.bz:

Comedy: The Office, Peep Show, Coupling, Chef, Fawlty Towers, Only Fools and Horses, The IT Crowd, Brass Eye, Nathan Barley, Young Ones, Monty Python, Blackadder, Alan Partridge, Father Ted, Coupling, Little Britain, Mr Bean, Extras, Green Wing, Mighty Boosh

Drama: Casualty, Holby City, The Bill, Hustle, Skins, Shameless, Ashes To Ashes

Entertainment: Faking It, Derren Brown, Scrapheap Challenge, Strictly Come Dancing, Wife Swap

Game/Quiz Shows: Whose Line Is It Anyway?, Have I Got News For You, Deal Or No Deal (UK), Q.I.

Education/Documentary: Planet Earth, Horizon, Panorama, Mark Thomas (Comedy) Product

Food: Hell's Kitchen, Jamie Oliver, The F Word, Kitchen Nightmares, Masterchef, Great British Menu, Gordon Ramsay's Cookalong

Home/Property/Garden: Property Ladder, How Clean Is Your House?, Changing Rooms, Grand Designs, Homes Under The Hammer, To Buy Or Not To Buy

Motoring: Top Gear, Fifth Gear

Music: Top Of The Pops, Jools Holland, Glastonbury

Reality: Big Brother, Celebrity Big Brother, I'm a Celebrity - Get Me Out of Here!, Any Dream Will Do, Grease, Pop Idol, Wife Swap, X Factor, Badger Or Bust, Apprentice UK, Dragons' Den, Britain's Got Talent

Sci-Fi: Doctor Who, Red Dwarf, Torchwood, Primeval

Sport: Football (Soccer), Cricket, Rugby, Snooker, Darts, Formula One (F1GP)

Soaps: Eastenders, Coronation Street, Emmerdale, Neighbours, Hollyoaks

Style/Fashion: What Not To Wear, Project Catwalk

Kids: Teletubbies, Blue Peter, Tikkabilla, Andy Pandy, Postman Pat, Shoebox Zoo, Brum, Bob The Builder, Young Dracula, Sarah Jane Adventures, Shaun The Sheep

related torrents

Torrent name

health leech seeds Size
 


comments (0)

Main Menu