UK

SuperDoctors Episode 2 (28st August 2008) [PDTV (Xvid)]

  • Download 5x Faster
  • Download torrent
  • Direct Download
  • Rate this torrent +  |  -
SuperDoctors Episode 2 (28st August 2008) [PDTV (Xvid)]

Anonymous and Free Direct Download 300GB+


Torrent info

Name:SuperDoctors Episode 2 (28st August 2008) [PDTV (Xvid)]

Total Size: 697.88 MB

Magnet: Magnet Link

Seeds: 0

Leechers: 0

Stream: Watch Online @ Movie4u

Last Updated: 2015-04-22 14:04:29 (Update Now)

Torrent added: 2009-09-09 07:57:13



VPN For Torrents

Torrent Files List


SuperDoctors (28st August 2008) [PDTV (Xvid)].avi (Size: 697.88 MB) (Files: 2)

 SuperDoctors (28st August 2008) [PDTV (Xvid)].avi

697.88 MB

 SuperDoctors (28st August 2008) [PDTV (Xvid)].nfo

2.81 KB
 

tracker

leech seeds
 

Torrent description

This torrent was uploaded from www.TheBox.bz (signup is open and free) - the home of all British TV

SuperDoctors (28st August 2008) [PDTV (Xvid)].avi

website:-
http://search.bbc.co.uk/cgi-bin/search/results.pl?q=superdoctors&scope=all&tab=all&recipe=all&x=86&y=13

SuperDoctors (Documentary)
Time - 21:00 - 22:00 (1 hour long)
When - Thursday 28th August on BBC 1
Robot Surgeons. Series 1, episode 2.
Professor Robert Winston investigates the use of stem cells as a possible cure for many diseases, witnessing clinical trials taking place at a London hospital. He also finds out about a patient who has volunteered as a test subject, together with a couple so desperate to treat their brain-damaged son they have spent £180,000 on treatment
(Editor's Choice, New, Stereo, Widescreen, Subtitles, Audio Described)
Part 2 of 3

Video info:-

Complete name : SuperDoctors (28st August 2008) [PDTV (Xvid)].avi
Format : AVI
Format/Info : Audio Video Interleave
File size : 698 MiB
Duration : 58mn 55s
Overal bit rate : 1656 Kbps
Writing application : VirtualDubMod 1.5.10.2 (build 2540/release)
Writing library : VirtualDubMod build 2540/release

Video
Format : MPEG-4 Visual
Format profile : Streaming [email protected]
Format settings, BVOP : Yes
Format settings, QPel : No
Format settings, GMC : 0 warppoint
Format settings, Matrix : Default
Muxing mode : Packet Bitstream
Codec ID : XVID
Codec ID/Hint : XviD
Duration : 58mn 55s
Bit rate : 1508 Kbps
Width : 640 pixels
Height : 352 pixels
Display aspect ratio : 16/9
Frame rate : 25.000 fps
Resolution : 8 bits
Colorimetry : 4:2:0
Scan type : Progressive
Bits/(Pixel*Frame) : 0.268
Stream size : 636 MiB
Writing library : XviD 1.1.2
Writing library/Date : UTC 2006-11-01

Audio
Format : MPEG Audio
Format version : Version 1 / Layer 3
Codec ID : 55
Codec ID/Hint : MP3
Duration : 58mn 55s
Bit rate mode : VBR
Bit rate : 135 Kbps
Nominal bit rate : 128 Kbps
Channel(s) : 2 channels
Sampling rate : 48.0 KHz
Resolution : 16 bits
Stream size : 56.7 MiB
Writing library : LAME3.90.
Encoding settings : ABR



===============================

Some of the other rather spiffing shows available now and always if you signup free @ www.TheBox.bz:

Comedy: The Office, Peep Show, Coupling, Chef, Fawlty Towers, Only Fools and Horses, The IT Crowd, Brass Eye, Nathan Barley, Young Ones, Monty Python, Blackadder, Alan Partridge, Father Ted, Coupling, Little Britain, Mr Bean, Extras, Green Wing, Mighty Boosh

Drama: Casualty, Holby City, The Bill, Hustle, Skins, Shameless, Ashes To Ashes

Entertainment: Faking It, Derren Brown, Scrapheap Challenge, Strictly Come Dancing, Wife Swap

Game/Quiz Shows: Whose Line Is It Anyway?, Have I Got News For You, Deal Or No Deal (UK), Q.I.

Education/Documentary: Planet Earth, Horizon, Panorama, Mark Thomas (Comedy) Product

Food: Hell's Kitchen, Jamie Oliver, The F Word, Kitchen Nightmares, Masterchef, Great British Menu, Gordon Ramsay's Cookalong

Home/Property/Garden: Property Ladder, How Clean Is Your House?, Changing Rooms, Grand Designs, Homes Under The Hammer, To Buy Or Not To Buy

Motoring: Top Gear, Fifth Gear

Music: Top Of The Pops, Jools Holland, Glastonbury

Reality: Big Brother, Celebrity Big Brother, I'm a Celebrity - Get Me Out of Here!, Any Dream Will Do, Grease, Pop Idol, Wife Swap, X Factor, Badger Or Bust, Apprentice UK, Dragons' Den, Britain's Got Talent

Sci-Fi: Doctor Who, Red Dwarf, Torchwood, Primeval

Sport: Football (Soccer), Cricket, Rugby, Snooker, Darts, Formula One (F1GP)

Soaps: Eastenders, Coronation Street, Emmerdale, Neighbours, Hollyoaks

Style/Fashion: What Not To Wear, Project Catwalk

Kids: Teletubbies, Blue Peter, Tikkabilla, Andy Pandy, Postman Pat, Shoebox Zoo, Brum, Bob The Builder, Young Dracula, Sarah Jane Adventures, Shaun The Sheep

related torrents

Torrent name

health leech seeds Size
 


comments (0)

Main Menu