UK

Tonight Gran Scammers (7th September 2009) [PDTV (XviD)]

  • Download 5x Faster
  • Download torrent
  • Direct Download
  • Rate this torrent +  |  -
Tonight Gran Scammers (7th September 2009) [PDTV (XviD)]

Free and Direct Download with Usenet.nl 300GB+ free


Torrent info

Name:Tonight Gran Scammers (7th September 2009) [PDTV (XviD)]

Total Size: 175.34 MB

Magnet: Magnet Link

Seeds: 58

Leechers: 1

Stream: Watch Online @ Movie4u

Last Updated: 2010-09-30 10:41:16 (Update Now)

Torrent added: 2009-09-09 07:56:35





Torrent Files List


tonight.gran.scammers.exposed.ws.pdtv.xvid-ftp.avi (Size: 175.34 MB) (Files: 2)

 tonight.gran.scammers.exposed.ws.pdtv.xvid-ftp.avi

175.33 MB

 tonight.gran.scammers.exposed.ws.pdtv.xvid-ftp.nfo

3.79 KB
 

Announce URL: http://www.thebox.bz:2710/00000000000000000000000000000000/announce

Torrent description

This torrent was uploaded from www.TheBox.bz (signup is open and free) - the home of all British TV

Tonight   Gran Scammers (7th September 2009) [PDTV (XviD)] preview 0

Monday 07 September
8:00pm - 8:30pm
ITV 1

Morland Sanders reveals the lengths to which rogue traders and con artists will go to trick the elderly out of their money. Plus he meets the families who have caught on camera home carers stealing from their parents and grandparents.

=== File Information ===
General
Complete name : tonight.gran.scammers.exposed.ws.pdtv.xvid-ftp.avi
Format : AVI
Format/Info : Audio Video Interleave
File size : 175 MiB
Duration : 23mn 58s
Overall bit rate : 1 022 Kbps
Writing application : Nandub v1.0rc2
Writing library : Nandub build 1853/release

Video
ID : 0
Format : MPEG-4 Visual
Format profile : Streaming [email protected]
Format settings, BVOP : Yes
Format settings, QPel : No
Format settings, GMC : No warppoints
Format settings, Matrix : Default (H.263)
Muxing mode : Packed bitstream
Codec ID : XVID
Codec ID/Hint : XviD
Duration : 23mn 58s
Bit rate : 887 Kbps
Width : 640 pixels
Height : 352 pixels
Display aspect ratio : 16/9
Frame rate : 25.000 fps
Resolution : 24 bits
Colorimetry : 4:2:0
Scan type : Progressive
Bits/(Pixel*Frame) : 0.157
Stream size : 152 MiB (87%)
Writing library : XviD 1.2.1 (UTC 2008-12-04)

Audio
ID : 1
Format : MPEG Audio
Format version : Version 1
Format profile : Layer 3
Codec ID : 55
Codec ID/Hint : MP3
Duration : 23mn 58s
Bit rate mode : Variable
Bit rate : 123 Kbps
Nominal bit rate : 128 Kbps
Channel(s) : 2 channels
Sampling rate : 48.0 KHz
Resolution : 16 bits
Stream size : 21.0 MiB (12%)
Alignment : Aligned on interleaves
Interleave, duration : 24 ms (0.60 video frame)
Interleave, preload duration : 522 ms
Writing library : LAME3.97
Encoding settings : -m j -V 4 -q 3 -lowpass 17 --abr 128

===============================

Some of the other rather spiffing shows available now and always if you signup free @ www.TheBox.bz:

Comedy: The Office, Peep Show, Coupling, Chef, Fawlty Towers, Only Fools and Horses, The IT Crowd, Brass Eye, Nathan Barley, Young Ones, Monty Python, Blackadder, Alan Partridge, Father Ted, Coupling, Little Britain, Mr Bean, Extras, Green Wing, Mighty Boosh

Drama: Casualty, Holby City, The Bill, Hustle, Skins, Shameless, Ashes To Ashes

Entertainment: Faking It, Derren Brown, Scrapheap Challenge, Strictly Come Dancing, Wife Swap

Game/Quiz Shows: Whose Line Is It Anyway?, Have I Got News For You, Deal Or No Deal (UK), Q.I.

Education/Documentary: Planet Earth, Horizon, Panorama, Mark Thomas (Comedy) Product

Food: Hell's Kitchen, Jamie Oliver, The F Word, Kitchen Nightmares, Masterchef, Great British Menu, Gordon Ramsay's Cookalong

Home/Property/Garden: Property Ladder, How Clean Is Your House?, Changing Rooms, Grand Designs, Homes Under The Hammer, To Buy Or Not To Buy

Motoring: Top Gear, Fifth Gear

Music: Top Of The Pops, Jools Holland, Glastonbury

Reality: Big Brother, Celebrity Big Brother, I'm a Celebrity - Get Me Out of Here!, Any Dream Will Do, Grease, Pop Idol, Wife Swap, X Factor, Badger Or Bust, Apprentice UK, Dragons' Den, Britain's Got Talent

Sci-Fi: Doctor Who, Red Dwarf, Torchwood, Primeval

Sport: Football (Soccer), Cricket, Rugby, Snooker, Darts, Formula One (F1GP)

Soaps: Eastenders, Coronation Street, Emmerdale, Neighbours, Hollyoaks

Style/Fashion: What Not To Wear, Project Catwalk

Kids: Teletubbies, Blue Peter, Tikkabilla, Andy Pandy, Postman Pat, Shoebox Zoo, Brum, Bob The Builder, Young Dracula, Sarah Jane Adventures, Shaun The Sheep

related torrents

Torrent name

health leech seeds Size
 

comments (0)

Main Menu