Documentary

BloodLine DVDRip XViD [2008] LMG rar

  • Download 5x Faster
  • Download torrent
  • Direct Download
  • Rate this torrent +  |  -
BloodLine DVDRip XViD [2008] LMG rar

Anonymous and Free Direct Download 300GB+


Torrent info

Name:BloodLine DVDRip XViD [2008] LMG rar

Total Size: 1.39 GB

Magnet: Magnet Link

Seeds: 1

Leechers: 2

Stream: Watch Online @ Movie4u

Last Updated: 2010-09-26 10:05:49 (Update Now)

Torrent added: 2009-09-09 07:55:46



VPN For Torrents

Torrent Files List


BloodLine DVDRip XViD [2008] - LMG.rar (Size: 1.39 GB) (Files: 1)

 BloodLine DVDRip XViD [2008] - LMG.rar

1.39 GB
 

Announce URL: http://genesis.1337x.org:1337/announce

Torrent description

BloodLine DVDRip XViD [2008] - LMG


General
Complete name : BloodLine DVDRip XViD [2008] - LMG
Format : AVI
Format/Info : Audio Video Interleave

CD1
File size : 700 MiB
Duration : 59mn 39s

CD2

File size : 700 MiB
Duration : 58mn 35s
Writing application : VirtualDubMod 1.5.10.2 (build 2540/release)
Writing library : VirtualDubMod build 2540/release

Video
Format : MPEG-4 Visual
Format profile : Streaming [email protected]
Format settings, BVOP : Yes
Format settings, QPel : No
Format settings, GMC : No warppoints
Format settings, Matrix : Default
Codec ID : XVID
Codec ID/Hint : XviD
Duration : 59mn 39s
Bit rate : 1 440 Kbps
Width : 656 pixels
Height : 368 pixels
Display aspect ratio : 16/9
Frame rate : 23.976 fps
Resolution : 24 bits
Colorimetry : 4:2:0
Scan type : Progressive
Bits/(Pixel*Frame) : 0.249
Stream size : 614 MiB (88%)
Writing library : XviD 1.1.2 (UTC 2006-11-01)

Audio
Format : AC-3
Format/Info : Audio Coding 3
Codec ID : 2000
Duration : 59mn 27s
Bit rate mode : Constant
Bit rate : 192 Kbps
Channel(s) : 2 channels
Channel positions : L R
Sampling rate : 48.0 KHz
Video delay : 30ms
Stream size : 81.6 MiB (12%)
Alignment : Split accross interleaves
Interleave, duration : 42 ms (1.00 video frame)
Interleave, preload duration : 500 ms

related torrents

Torrent name

health leech seeds Size
 


comments (0)

Main Menu