Drama

Bums [2006] DVDRip XViD TWiST rar

  • Download 5x Faster
  • Download torrent
  • Direct Download
  • Rate this torrent +  |  -
Bums [2006] DVDRip XViD TWiST rar

Anonymous and Free Direct Download 300GB+


Torrent info

Name:Bums [2006] DVDRip XViD TWiST rar

Total Size: 700.55 MB

Magnet: Magnet Link

Seeds: 2

Leechers: 3

Stream: Watch Online @ Movie4u

Last Updated: 2009-11-23 22:59:48 (Update Now)

Torrent added: 2009-09-09 07:53:41



VPN For Torrents

Torrent Files List


Bums [2006] DVDRip XViD-TWiST.rar (Size: 700.55 MB) (Files: 1)

 Bums [2006] DVDRip XViD-TWiST.rar

700.55 MB
 

Announce URL: http://genesis.1337x.org:1337/announce

Torrent description

Bums [2006] DVDRip XViD-TWiST


General
Complete name : Bums.2006.DVDRip.XViD-TWiST
Format : AVI
Format/Info : Audio Video Interleave
File size : 697 MiB
Duration : 1h 39mn
Overall bit rate : 976 Kbps
Writing application : Nandub v1.0rc2
Writing library : Nandub build 1853/release

Video
Format : MPEG-4 Visual
Format profile : Streaming [email protected]
Format settings, BVOP : No
Format settings, QPel : No
Format settings, GMC : No warppoints
Format settings, Matrix : Default
Codec ID : XVID
Codec ID/Hint : XviD
Duration : 1h 39mn
Bit rate : 859 Kbps
Width : 576 pixels
Height : 304 pixels
Display aspect ratio : 1.895
Frame rate : 23.976 fps
Resolution : 24 bits
Colorimetry : 4:2:0
Scan type : Progressive
Bits/(Pixel*Frame) : 0.205
Stream size : 613 MiB (88%)
Writing library : XviD 1.1.2 (UTC 2006-11-01)

Audio
Format : MPEG Audio
Format version : Version 1
Format profile : Layer 3
Codec ID : 55
Codec ID/Hint : MP3
Duration : 1h 39mn
Bit rate mode : Variable
Bit rate : 105 Kbps
Minimum bit rate : 32.0 Kbps
Channel(s) : 2 channels
Sampling rate : 48.0 KHz
Resolution : 16 bits
Stream size : 74.7 MiB (11%)
Alignment : Aligned on interleaves
Interleave, duration : 24 ms (0.58 video frame)
Interleave, preload duration : 178 ms
Writing library : LAME3.96r
Encoding settings : VBR (rh)

related torrents

Torrent name

health leech seeds Size
 


comments (0)

Main Menu