Horror

Pure Blood 2000 DVDRip XviD FiCO rar

  • Download 5x Faster
  • Download torrent
  • Direct Download
  • Rate this torrent +  |  -
Pure Blood 2000 DVDRip XviD FiCO rar

Free and Direct Download with Usenet.nl 300GB+ free


Torrent info

Name:Pure Blood 2000 DVDRip XviD FiCO rar

Total Size: 706.21 MB

Magnet: Magnet Link

Seeds: 3

Leechers: 3

Stream: Watch Online @ Movie4u

Last Updated: 2010-09-17 10:12:16 (Update Now)

Torrent added: 2009-09-09 07:51:49





Torrent Files List


Pure Blood 2000 DVDRip XviD-FiCO.rar (Size: 706.21 MB) (Files: 1)

 Pure Blood 2000 DVDRip XviD-FiCO.rar

706.21 MB
 

Announce URL: http://genesis.1337x.org:1337/announce

Torrent description

Pure Blood 2000 DVDRip XviD-FiCO


General
Complete name : Pure.Blood.2000.DVDRip.XviD-FiCO
Format : AVI
Format/Info : Audio Video Interleave
File size : 702 MiB
Duration : 1h 33mn
Overall bit rate : 1 052 Kbps
Writing application : Nandub v1.0rc2
Writing library : Nandub build 1852/release

Video
Format : MPEG-4 Visual
Format profile : [email protected]
Format settings, BVOP : Yes
Format settings, QPel : No
Format settings, GMC : No warppoints
Format settings, Matrix : Default
Codec ID : XVID
Codec ID/Hint : XviD
Duration : 1h 33mn
Bit rate : 903 Kbps
Width : 608 pixels
Height : 352 pixels
Display aspect ratio : 16/9
Frame rate : 25.000 fps
Resolution : 24 bits
Colorimetry : 4:2:0
Scan type : Progressive
Bits/(Pixel*Frame) : 0.169
Stream size : 603 MiB (86%)
Writing library : XviD 1.0.3 (UTC 2004-12-20)

Audio
Format : MPEG Audio
Format version : Version 1
Format profile : Layer 3
Codec ID : 55
Codec ID/Hint : MP3
Duration : 1h 33mn
Bit rate mode : Variable
Bit rate : 135 Kbps
Minimum bit rate : 128 Kbps
Channel(s) : 2 channels
Sampling rate : 48.0 KHz
Resolution : 16 bits
Stream size : 90.3 MiB (13%)
Alignment : Aligned on interleaves
Interleave, duration : 24 ms (0.60 video frame)
Interleave, preload duration : 437 ms
Writing library : LAME3.97
Encoding settings : VBR (mtrh)

related torrents

Torrent name

health leech seeds Size
 

comments (0)

Main Menu