UK

Imagine The Secret of Life (19th February 2008) [PDTV (DivX)] DW Staff Approved

  • Download 5x Faster
  • Download torrent
  • Direct Download
  • Rate this torrent +  |  -

Torrent info

Name:Imagine The Secret of Life (19th February 2008) [PDTV (DivX)] DW Staff Approved

Total Size: 412.14 MB

Magnet: Magnet Link

Seeds: 0

Leechers: 0

Stream: Watch Online @ Movie4u

Last Updated: 2015-10-19 15:46:56 (Update Now)

Torrent added: 2009-09-09 07:50:53




Torrent Files List


BBC Imagine-The Secret of Life.avi (Size: 412.14 MB) (Files: 1)

 BBC Imagine-The Secret of Life.avi

412.14 MB
 

tracker

leech seeds
 

Torrent description

This torrent was uploaded from www.TheBox.bz (signup is open and free) - the home of all British TV

Imagine... The Secret of Life (19th February 2008) [PDTV (DivX)]

DW Staff Approved [url]http://thebox.bz/forums.php?action=viewtopic&topicid=12898[/url]

[url]http://www.bbc.co.uk/imagine/episode/the_secret_of_life.shtm[/url]

The Secret of Life

Why are self-help books so popular? What are we looking for? Are we all desperate? Alan Yentob goes in search of self-help.

Starting with a look at the latest self-help phenomenon, The Secret, Alan Yentob sets out to learn from the big hitters in the self-help world: Susan Jeffers, author of the bestselling Feel The Fear And Do It Anyway; David Burns, whose book Feeling Good, The New Mood Therapy has sold over 5 million copies, and Anthony Robbins, who fills stadiums with his can-do performances. "Most people see things worse than they are so they never have to try," says Robbins. "People say to me 'I'm sceptical' and I say no you're not, you're gutless."

Robbins has been the personal coach to a raft of celebrities including Mikhail Gorbachev and Bill Clinton. At last year's Wimbledon, Serena Williams, another Robbins follower, was spotted with her own self-help notes: "My good thoughts are powerful. Any negative thoughts are weak. You are number one. You are the best. You will win Wimbledon."

"But let's face it, none of us are going to win Wimbledon," says Yentob. "And anyway, we keep being told it's not all about winning, so why do we need these books?" "I think we all have pain," says Amy Jenkins, writer of This Life and a self-help fan.

David Burns, a pioneer of cognitive therapy, challenges pain head on with the idea that "your thoughts create your feelings, so your thoughts can change your feelings." This is not just a fad; his self-help book on cognitive therapy is now prescribed by doctors around the world instead of antidepressants.

Yentob's optimism is bought crushingly down to earth by the Freudian psychoanalyst Adam Philips. "Freud said the purpose of psychoanalysis is to turn neurotic misery into everyday unhappiness, and what he meant by that is that people aren't going to be transformed magically."

In search of the roots of the self-help genre, Yentob discovers Self Help by Samuel Smiles, which was published in 1859, the same year as Darwin's The Origin of Species. "Guess which one was the bestseller?" The next blockbuster was How to Win Friends And Influence People by Dale Carnegie, published in 1936, during the Depression.

"Now we live in a culture of constant change and turnover," says the self-help critic Micki McGee. "You not only have to be employed, but constantly employable. Not only married, but constantly marriageable. And that is the moment self-help emerges as a powerful literature."

The episode ends with The Wizard of Oz, the ultimate self-help film. All the characters - the Tin Man, the Scarecrow, the Lion and Dorothy - think they have to look to the Wizard for the answers; what they eventually realise is they were within themselves all along.

So has Yentob been changed by his voyage of discovery? "The truth is there is more to self-help than I thought," he admits.

The Secret of Life, BBC ONE, Tuesday 19th February 2008, 10.35pm.

General
Complete name : BBC Imagine-The Secret of Life.avi
Format : AVI
Format/Info : Audio Video Interleave
File size : 412 MiB
Duration : 49mn 29s
Overal bit rate : 1164 Kbps
Writing application : Lavf51.13.4

Video
Format : MPEG-4 Visual
Format profile : [email protected]
Format settings, BVOP : No
Format settings, QPel : No
Format settings, GMC : 0 warppoint
Format settings, Matrix : Default
Codec ID : XVID
Codec ID/Hint : XviD
Duration : 49mn 28s
Bit rate : 1024 Kbps
Width : 672 pixels
Height : 544 pixels
Display aspect ratio : 5/4
Frame rate : 25.000 fps
Resolution : 8 bits
Colorimetry : 4:2:0
Scan type : Progressive
Bits/(Pixel*Frame) : 0.112
Stream size : 362 MiB
Writing library : Lavc51.44.0

Audio
Format : MPEG Audio
Format version : Version 1 / Layer 3
Codec ID : 55
Codec ID/Hint : MP3
Duration : 49mn 29s
Bit rate mode : CBR
Bit rate : 128 Kbps
Channel(s) : 2 channels
Sampling rate : 44.1 KHz
Resolution : 16 bits
Stream size : 45.3 MiB

===============================

Some of the other rather spiffing shows available now and always if you signup free @ www.TheBox.bz:

Comedy: The Office, Peep Show, Coupling, Chef, Fawlty Towers, Only Fools and Horses, The IT Crowd, Brass Eye, Nathan Barley, Young Ones, Monty Python, Blackadder, Alan Partridge, Father Ted, Coupling, Little Britain, Mr Bean, Extras, Green Wing, Mighty Boosh

Drama: Casualty, Holby City, The Bill, Hustle, Skins, Shameless, Ashes To Ashes

Entertainment: Faking It, Derren Brown, Scrapheap Challenge, Strictly Come Dancing, Wife Swap

Game/Quiz Shows: Whose Line Is It Anyway?, Have I Got News For You, Deal Or No Deal (UK), Q.I.

Education/Documentary: Planet Earth, Horizon, Panorama, Mark Thomas (Comedy) Product

Food: Hell's Kitchen, Jamie Oliver, The F Word, Kitchen Nightmares, Masterchef, Great British Menu, Gordon Ramsay's Cookalong

Home/Property/Garden: Property Ladder, How Clean Is Your House?, Changing Rooms, Grand Designs, Homes Under The Hammer, To Buy Or Not To Buy

Motoring: Top Gear, Fifth Gear

Music: Top Of The Pops, Jools Holland, Glastonbury

Reality: Big Brother, Celebrity Big Brother, I'm a Celebrity - Get Me Out of Here!, Any Dream Will Do, Grease, Pop Idol, Wife Swap, X Factor, Badger Or Bust, Apprentice UK, Dragons' Den, Britain's Got Talent

Sci-Fi: Doctor Who, Red Dwarf, Torchwood, Primeval

Sport: Football (Soccer), Cricket, Rugby, Snooker, Darts, Formula One (F1GP)

Soaps: Eastenders, Coronation Street, Emmerdale, Neighbours, Hollyoaks

Style/Fashion: What Not To Wear, Project Catwalk

Kids: Teletubbies, Blue Peter, Tikkabilla, Andy Pandy, Postman Pat, Shoebox Zoo, Brum, Bob The Builder, Young Dracula, Sarah Jane Adventures, Shaun The Sheep

related torrents

Torrent name

health leech seeds Size
 


comments (0)

Main Menu