Other

Olivia Newton John Live at the Sidney Opera House[2007]DVDrip[AC3 5 1] Atlas47

  • Download 5x Faster
  • Download torrent
  • Direct Download
  • Rate this torrent +  |  -
Olivia Newton John Live at the Sidney Opera House[2007]DVDrip[AC3 5 1] Atlas47

Free and Direct Download with Usenet.nl 300GB+ free


Torrent info

Name:Olivia Newton John Live at the Sidney Opera House[2007]DVDrip[AC3 5 1] Atlas47

Total Size: 1.37 GB

Magnet: Magnet Link

Seeds: 3

Leechers: 12

Stream: Watch Online @ Movie4u

Last Updated: 2010-12-27 14:07:18 (Update Now)

Torrent added: 2009-09-09 07:50:41





Torrent Files List


Olivia Newton-John.avi (Size: 1.37 GB) (Files: 2)

 Olivia Newton-John.avi

1.37 GB

 Olivia Newton-John.nfo

9.77 KB
 

Announce URL: http://tracker.publicbt.com:80/announce

Torrent description


±±±±±±±±±±±±±±±±±±±±±±±±±±±±±±>>www.tornster.com<<±±±±±±±±±±±±±±±±±±±±±±±±±±±±±±
± ±
± ±
± General ±
± Complete name : ONJ - Live at the Sidney Opera House ±
± Format : AVI ±
± Format/Info : Audio Video Interleave ±
± File size : 1.37 GiB ±
± Duration : 2h 7mn ±
± Overall bit rate : 1 534 Kbps ±
± Writing application : VirtualDubMod 1.5.4.1 (build 2178/release)±
± Writing library : VirtualDubMod build 2178/release ±
± ±
± Video ±
± Format : MPEG-4 Visual ±
± Format settings, BVOP : Yes ±
± Format settings, QPel : No ±
± Format settings, GMC : No warppoints ±
± Format settings, Matrix : Default ±
± Codec ID : DX50 ±
± Codec ID/Hint : DivX 5 ±
± Duration : 2h 7mn ±
± Bit rate : 1 079 Kbps ±
± Width : 576 pixels ±
± Height : 336 pixels ±
± Display aspect ratio : 16/9 ±
± Frame rate : 23.976 fps ±
± Resolution : 24 bits ±
± Colorimetry : 4:2:0 ±
± Scan type : Progressive ±
± Bits/(Pixel*Frame) : 0.232 ±
± Stream size : 986 MiB (70%) ±
± Writing library : DivX 2816 ±
± ±
± Audio ±
± Format : AC-3 ±
± Format/Info : Audio Coding 3 ±
± Codec ID : 2000 ±
± Duration : 2h 7mn ±
± Bit rate mode : Constant ±
± Bit rate : 448 Kbps ±
± Channel(s) : 6 channels ±
± Channel positions : Front: L C R, Surround: L R, LFE ±
± Sampling rate : 48.0 KHz ±
± Stream size : 409 MiB (29%) ±
± Alignment : Split accross interleaves ±
± Interleave, duration : 83 ms (2.00 video frames) ±
± Interleave, preload duration : 500 ms ±
± ±
± IMDb Rating : 9.3/10 ±
± IMDb URL : http://www.imdb.com/title/tt1183689/ ±
± ±
±°°°°°°°°°°°°°°°°°°°°°°°°°°°°°°°°°°°°°°°°°°°°°°°°°°°°°°°°°°°°°°°°°°°°°°°°°°°°°°±
± ±
± SONGS. ±
± ±
± 1. Have You Never Been Mellow 15. Cry Me A River ±
± ±
± 2. Magic 16. The Rumour ±
± ±
± 3. Xanadu 17. Heart Attack ±
± ±
± 4. Stronger Than Before 18. Make A Move On Me ±
± ±
± 5. If Not For You 19. Twist Of Fate ±
± ±
± 6. Let Me Be There 20. Tenterfield Saddler ±
± ±
± 7. Please Mr. Please 21. Can I Trust Your Arms ±
± ±
± 8. Jolene 22. The Promise (The Dolphin Song) ±
± ±
± 9. If You Love Me (Let Me Know) 23. You're The One That I Want ±
± ±
± 10. Physical 24. Hopelessly Devoted To You ±
± ±
± 11. Don't Stop Believin' 25. Summer Nights ±
± ±
± 12. Dancin' 26. I Honestly Love You ±
± ±
± 13. Suddenly 27. Serenity ±
± ±
± 14. Not Gonna Give In To It ±
± ±
±°°°°°°°°°°°°°°°°°°°°°°°°°°°°°°°°°°°°°°°°°°°°°°°°°°°°°°°°°°°°°°°°°°°°°°°°°°°°°°±
± ±
± Please remember to seed ±
± ±
± Standalone Enabled ±
± ±
± www.tornster.com ±
± ±
±±±±±±±±±±±±±±±±±±±±±±±±±±±±±±±±±±±±±±±±±±±±±±±±±±±±±±±±±±±±±±±±±±±±±±±±±±±±±±±±

related torrents

Torrent name

health leech seeds Size
 

comments (0)

Main Menu