UK

Classic Emmerdale (3rd August 2006) [TvRip (XviD)]

  • Download 5x Faster
  • Download torrent
  • Direct Download
  • Rate this torrent +  |  -
Classic Emmerdale (3rd August 2006) [TvRip (XviD)]

Anonymous and free Direct Download 300GB+


Torrent info

Name:Classic Emmerdale (3rd August 2006) [TvRip (XviD)]

Total Size: 175.99 MB

Magnet: Magnet Link

Seeds: 0

Leechers: 0

Stream: Watch Online @ Movie4u

Last Updated: 2015-09-12 13:52:21 (Update Now)

Torrent added: 2009-09-09 07:23:19



VPN For Torrents

Torrent Files List


Classic Emmerdale 2006.08.03.TvRip.Xvid.(4428).Robinhood99.avi (Size: 175.99 MB) (Files: 1)

 Classic Emmerdale 2006.08.03.TvRip.Xvid.(4428).Robinhood99.avi

175.99 MB
 

tracker

leech seeds
 

Torrent description

This torrent was uploaded from www.TheBox.bz (signup is open and free) - the home of all British TV



Classic Emmerdale (3rd August 2006) [TvRip (XviD)] preview 0


==ORIGINAL UK AIR DATEs:==
3 August 2006
Episode(S)4428

==Description==
---------------------------------------------------------------------------------------------


August 03/4428
[url]http://www.itnsource.com/shotlist//ITVProgs/2006/08/03/Y05244428A/?s=emmerdale+4428[/url]

At the Dingles, Belle is seen running out of the front door towards the pig sty. Lisa is running after her telling her to come back and finish her breakfast but Belle tells her that she doesn't need it she needs to check on Petal. Zak comes out and stands next to her saying that she is bound to act up at times like this and Lisa says that she has only been back for one night and she was already running her ragged. Debbie comes out of the house and walks past them both. Lisa asks her if she has finished doing the dishes and Debbie tells her she hasn't but that she has to get to work. Lisa rubs her face and says give me strength and at this point Sam comes out with the pram saying he and Samson are going for a walk. Lisa rushes to go past him saying she will get her jacket but Zak pulls her back and tells her not to bother him and that Sam just wants to take in the morning air with his son. Sam tells them he won't be long and they haven't to worry. Zak watches him leaving saying he has lived a lifetime in a week but that he will come through it, adding that they all will and that they needed to take just one step at a time. Belle runs up to them to tell them that she had just told Petal that she had dreamt of Alice in heaven and that she was all happy and smiley and her hair had grown back all long and curly. Lisa and Zak look sadly at each other.

---------------------------------------------------------------------------------------------



Format : MPEG-4 Visual
Format profile : Streaming [email protected]
Format settings, BVOP : Yes
Format settings, QPel : No
Format settings, GMC : No warppoints
Format settings, Matrix : Default
Muxing mode : Packed bitstream
Codec ID : XVID
Codec ID/Hint : XviD
Duration : 22mn 11s
Bit rate : 965 Kbps
Width : 640 pixels
Height : 384 pixels
Display aspect ratio : 1.667
Frame rate : 25.000 fps
Resolution : 24 bits
Colorimetry : 4:2:0
Scan type : Progressive
Bits/(Pixel*Frame) : 0.157
Stream size : 153 MiB (87%)
Writing library : XviD 1.0.3 (UTC 2004-12-20)

Format : MPEG Audio
Format version : Version 1
Format profile : Layer 3
Codec ID : 55
Codec ID/Hint : MP3
Duration : 22mn 11s
Bit rate mode : Variable
Bit rate : 131 Kbps
Nominal bit rate : 128 Kbps
Channel(s) : 2 channels
Sampling rate : 48.0 KHz
Resolution : 16 bits
Stream size : 20.8 MiB (12%)
Alignment : Aligned on interleaves
Interleave, duration : 24 ms (0.60 video frame)
Interleave, preload duration : 515 ms
Writing library : LAME3.90.
Encoding settings : ABR

===============================

Some of the other rather spiffing shows available now and always if you signup free @ www.TheBox.bz:

Comedy: The Office, Peep Show, Coupling, Chef, Fawlty Towers, Only Fools and Horses, The IT Crowd, Brass Eye, Nathan Barley, Young Ones, Monty Python, Blackadder, Alan Partridge, Father Ted, Coupling, Little Britain, Mr Bean, Extras, Green Wing, Mighty Boosh

Drama: Casualty, Holby City, The Bill, Hustle, Skins, Shameless, Ashes To Ashes

Entertainment: Faking It, Derren Brown, Scrapheap Challenge, Strictly Come Dancing, Wife Swap

Game/Quiz Shows: Whose Line Is It Anyway?, Have I Got News For You, Deal Or No Deal (UK), Q.I.

Education/Documentary: Planet Earth, Horizon, Panorama, Mark Thomas (Comedy) Product

Food: Hell's Kitchen, Jamie Oliver, The F Word, Kitchen Nightmares, Masterchef, Great British Menu, Gordon Ramsay's Cookalong

Home/Property/Garden: Property Ladder, How Clean Is Your House?, Changing Rooms, Grand Designs, Homes Under The Hammer, To Buy Or Not To Buy

Motoring: Top Gear, Fifth Gear

Music: Top Of The Pops, Jools Holland, Glastonbury

Reality: Big Brother, Celebrity Big Brother, I'm a Celebrity - Get Me Out of Here!, Any Dream Will Do, Grease, Pop Idol, Wife Swap, X Factor, Badger Or Bust, Apprentice UK, Dragons' Den, Britain's Got Talent

Sci-Fi: Doctor Who, Red Dwarf, Torchwood, Primeval

Sport: Football (Soccer), Cricket, Rugby, Snooker, Darts, Formula One (F1GP)

Soaps: Eastenders, Coronation Street, Emmerdale, Neighbours, Hollyoaks

Style/Fashion: What Not To Wear, Project Catwalk

Kids: Teletubbies, Blue Peter, Tikkabilla, Andy Pandy, Postman Pat, Shoebox Zoo, Brum, Bob The Builder, Young Dracula, Sarah Jane Adventures, Shaun The Sheep

related torrents

Torrent name

health leech seeds Size
 


comments (0)

Main Menu