UK

Classic Emmerdale (1st August 2006) [TvRip (XviD)]

  • Download 5x Faster
  • Download torrent
  • Direct Download
  • Rate this torrent +  |  -
Classic Emmerdale (1st August 2006) [TvRip (XviD)]

Free and Direct Download with Usenet 300GB+ free


Torrent info

Name:Classic Emmerdale (1st August 2006) [TvRip (XviD)]

Total Size: 175.86 MB

Magnet: Magnet Link

Seeds: 6

Leechers: 2

Stream: Watch Online @ Movie4u

Last Updated: 2010-08-30 03:02:45 (Update Now)

Torrent added: 2009-09-09 07:23:08




Torrent Files List


Classic Emmerdale 2006.08.01.TvRip.Xvid.(4426).Robinhood99.avi (Size: 175.86 MB) (Files: 1)

 Classic Emmerdale 2006.08.01.TvRip.Xvid.(4426).Robinhood99.avi

175.86 MB
 

Announce URL: http://www.thebox.bz:2710/00000000000000000000000000000000/announce

Torrent description

This torrent was uploaded from www.TheBox.bz (signup is open and free) - the home of all British TV



Classic Emmerdale (1st August 2006) [TvRip (XviD)] preview 0


==ORIGINAL UK AIR DATEs:==
1 August 2006
Episode(S)4426

==Description==
---------------------------------------------------------------------------------------------


August 01/4426
[url]http://www.itnsource.com/shotlist//ITVProgs/2006/08/01/Y05244426A/?s=emmerdale+4426[/url]

At Wishing Well Lisa is feeling Alice for a pulse, confirming that there isn't one, Lisa gently rests Alice's arm on the bed and turns to Zak who stands in the doorway. Zak takes his cap off as a mark of respect. Lisa slowly pulls the sheet up over Alice and heads outside to Sam and Zak.

Zak asks Sam to tell him exactly what he did and Sam tells him that he helped Alice die. Zak asks him how he did that and Sam explains that he injected it, he adds that you can't overdose on the pump so the injected it straight into the needle. Sam tells Zak that it was Alice's idea, that she wanted a peaceful end. Zak comments that it's a shame that she didn't leave the rest of them in peace but Lisa warns him that now isn't the time. Zak tells her that now is exactly the time and reminds her that they could be in serious trouble, Lisa quietly tells him that maybe no-one will find out if they reconnect the pump. Lisa clearly feels uncomfortable talking this way in front of Sam who's grief is apparent. Zak thinks that they will still notice that the morphine is missing but Sam tells him that they wont, Zak claims that they keep records and Sam tells him that he didn't use Alice's morphine, Zak is alarmed and asks him which morphine he used but Sam tells him that he shouldn't say. Lisa tells Sam that they'll need to know if the police find out and Sam tells them that Eli won't say anything. Zak is furious as Lisa concludes that Eli bought it. Zak reckons he should have known and calls Eli a scumbag, Sam tells him that it wasn't his fault and that Marlon persuaded him. Zak can't believe that Marlon is involved too and asks Sam what the hell has been going on.

---------------------------------------------------------------------------------------------



Format : MPEG-4 Visual
Format profile : Streaming [email protected]
Format settings, BVOP : Yes
Format settings, QPel : No
Format settings, GMC : No warppoints
Format settings, Matrix : Default
Muxing mode : Packed bitstream
Codec ID : XVID
Codec ID/Hint : XviD
Duration : 22mn 15s
Bit rate : 959 Kbps
Width : 640 pixels
Height : 384 pixels
Display aspect ratio : 1.667
Frame rate : 25.000 fps
Resolution : 24 bits
Colorimetry : 4:2:0
Scan type : Progressive
Bits/(Pixel*Frame) : 0.156
Stream size : 153 MiB (87%)
Writing library : XviD 1.0.3 (UTC 2004-12-20)

Format : MPEG Audio
Format version : Version 1
Format profile : Layer 3
Codec ID : 55
Codec ID/Hint : MP3
Duration : 22mn 15s
Bit rate mode : Variable
Bit rate : 132 Kbps
Nominal bit rate : 128 Kbps
Channel(s) : 2 channels
Sampling rate : 48.0 KHz
Resolution : 16 bits
Stream size : 21.1 MiB (12%)
Alignment : Aligned on interleaves
Interleave, duration : 24 ms (0.60 video frame)
Interleave, preload duration : 484 ms
Writing library : LAME3.90.
Encoding settings : ABR


===============================

Some of the other rather spiffing shows available now and always if you signup free @ www.TheBox.bz:

Comedy: The Office, Peep Show, Coupling, Chef, Fawlty Towers, Only Fools and Horses, The IT Crowd, Brass Eye, Nathan Barley, Young Ones, Monty Python, Blackadder, Alan Partridge, Father Ted, Coupling, Little Britain, Mr Bean, Extras, Green Wing, Mighty Boosh

Drama: Casualty, Holby City, The Bill, Hustle, Skins, Shameless, Ashes To Ashes

Entertainment: Faking It, Derren Brown, Scrapheap Challenge, Strictly Come Dancing, Wife Swap

Game/Quiz Shows: Whose Line Is It Anyway?, Have I Got News For You, Deal Or No Deal (UK), Q.I.

Education/Documentary: Planet Earth, Horizon, Panorama, Mark Thomas (Comedy) Product

Food: Hell's Kitchen, Jamie Oliver, The F Word, Kitchen Nightmares, Masterchef, Great British Menu, Gordon Ramsay's Cookalong

Home/Property/Garden: Property Ladder, How Clean Is Your House?, Changing Rooms, Grand Designs, Homes Under The Hammer, To Buy Or Not To Buy

Motoring: Top Gear, Fifth Gear

Music: Top Of The Pops, Jools Holland, Glastonbury

Reality: Big Brother, Celebrity Big Brother, I'm a Celebrity - Get Me Out of Here!, Any Dream Will Do, Grease, Pop Idol, Wife Swap, X Factor, Badger Or Bust, Apprentice UK, Dragons' Den, Britain's Got Talent

Sci-Fi: Doctor Who, Red Dwarf, Torchwood, Primeval

Sport: Football (Soccer), Cricket, Rugby, Snooker, Darts, Formula One (F1GP)

Soaps: Eastenders, Coronation Street, Emmerdale, Neighbours, Hollyoaks

Style/Fashion: What Not To Wear, Project Catwalk

Kids: Teletubbies, Blue Peter, Tikkabilla, Andy Pandy, Postman Pat, Shoebox Zoo, Brum, Bob The Builder, Young Dracula, Sarah Jane Adventures, Shaun The Sheep

related torrents

Torrent name

health leech seeds Size
 

comments (0)

Main Menu