UK

Classic Emmerdale (31st July 2006)[TvRip (XVID)]

  • Download 5x Faster
  • Download torrent
  • Direct Download
  • Rate this torrent +  |  -
Classic Emmerdale (31st July 2006)[TvRip (XVID)]

Anonymous and Direct Download 300GB+ free


Torrent info

Name:Classic Emmerdale (31st July 2006)[TvRip (XVID)]

Total Size: 175.91 MB

Magnet: Magnet Link

Seeds: 8

Leechers: 1

Stream: Watch Online @ Movie4u

Last Updated: 2010-07-28 04:18:52 (Update Now)

Torrent added: 2009-09-09 07:21:51




Torrent Files List


Classic Emmerdale 2006.07.31.TvRip.Xvid.(4425).Robinhood99.avi (Size: 175.91 MB) (Files: 1)

 Classic Emmerdale 2006.07.31.TvRip.Xvid.(4425).Robinhood99.avi

175.91 MB
 

Announce URL: http://www.thebox.bz:2710/00000000000000000000000000000000/announce

Torrent description

This torrent was uploaded from www.TheBox.bz (signup is open and free) - the home of all British TV



Classic Emmerdale (31st July 2006)[TvRip (XVID)] preview 0


==ORIGINAL UK AIR DATEs:==
31 July 2006
Episode(S)4425

==Description==
---------------------------------------------------------------------------------------------


JULY 31/4425
[url]http://www.itnsource.com/shotlist//ITVProgs/2006/07/31/Y05244425A/?s=emmerdale+4425[/url]

Marlon Toni Paddy Eli and Belle are playing football in the pitch across the road from the graveyard, they are having great fun. Sam watches then from the gate wondering how life can still be gong on. When Belle scores a goal they all cheer and celebrate as Sam turns and solemnly heads for the cemetery.

Sam makes his way through the graveyard and stops at Butch and Ben's grave, contemplating that Alice will soon be with them.

Sam arrives home to Wishing Well and watches Alice from the door way lying in her bed. Alice begins to wake and he rushes to her side, telling her that it's ok as he is there now. Sam presses the button on the syringe driver and we see that Alice's pain is eased. Del holds Samson on the sofa.

---------------------------------------------------------------------------------------------



Format : MPEG-4 Visual
Format profile : Streaming [email protected]
Format settings, BVOP : Yes
Format settings, QPel : No
Format settings, GMC : No warppoints
Format settings, Matrix : Default
Muxing mode : Packed bitstream
Codec ID : XVID
Codec ID/Hint : XviD
Duration : 24mn 3s
Bit rate : 878 Kbps
Width : 640 pixels
Height : 384 pixels
Display aspect ratio : 1.667
Frame rate : 25.000 fps
Resolution : 24 bits
Colorimetry : 4:2:0
Scan type : Progressive
Bits/(Pixel*Frame) : 0.143
Stream size : 151 MiB (86%)
Writing library : XviD 1.0.3 (UTC 2004-12-20)


Format : MPEG Audio
Format version : Version 1
Format profile : Layer 3
Codec ID : 55
Codec ID/Hint : MP3
Duration : 24mn 3s
Bit rate mode : Variable
Bit rate : 131 Kbps
Nominal bit rate : 128 Kbps
Channel(s) : 2 channels
Sampling rate : 48.0 KHz
Resolution : 16 bits
Stream size : 22.6 MiB (13%)
Alignment : Aligned on interleaves
Interleave, duration : 24 ms (0.60 video frame)
Interleave, preload duration : 500 ms
Writing library : LAME3.90.
Encoding settings : ABR

===============================

Some of the other rather spiffing shows available now and always if you signup free @ www.TheBox.bz:

Comedy: The Office, Peep Show, Coupling, Chef, Fawlty Towers, Only Fools and Horses, The IT Crowd, Brass Eye, Nathan Barley, Young Ones, Monty Python, Blackadder, Alan Partridge, Father Ted, Coupling, Little Britain, Mr Bean, Extras, Green Wing, Mighty Boosh

Drama: Casualty, Holby City, The Bill, Hustle, Skins, Shameless, Ashes To Ashes

Entertainment: Faking It, Derren Brown, Scrapheap Challenge, Strictly Come Dancing, Wife Swap

Game/Quiz Shows: Whose Line Is It Anyway?, Have I Got News For You, Deal Or No Deal (UK), Q.I.

Education/Documentary: Planet Earth, Horizon, Panorama, Mark Thomas (Comedy) Product

Food: Hell's Kitchen, Jamie Oliver, The F Word, Kitchen Nightmares, Masterchef, Great British Menu, Gordon Ramsay's Cookalong

Home/Property/Garden: Property Ladder, How Clean Is Your House?, Changing Rooms, Grand Designs, Homes Under The Hammer, To Buy Or Not To Buy

Motoring: Top Gear, Fifth Gear

Music: Top Of The Pops, Jools Holland, Glastonbury

Reality: Big Brother, Celebrity Big Brother, I'm a Celebrity - Get Me Out of Here!, Any Dream Will Do, Grease, Pop Idol, Wife Swap, X Factor, Badger Or Bust, Apprentice UK, Dragons' Den, Britain's Got Talent

Sci-Fi: Doctor Who, Red Dwarf, Torchwood, Primeval

Sport: Football (Soccer), Cricket, Rugby, Snooker, Darts, Formula One (F1GP)

Soaps: Eastenders, Coronation Street, Emmerdale, Neighbours, Hollyoaks

Style/Fashion: What Not To Wear, Project Catwalk

Kids: Teletubbies, Blue Peter, Tikkabilla, Andy Pandy, Postman Pat, Shoebox Zoo, Brum, Bob The Builder, Young Dracula, Sarah Jane Adventures, Shaun The Sheep

related torrents

Torrent name

health leech seeds Size
 


comments (0)

Main Menu