Action

The International Dual Audio EN TR[Leo] avi Uluslararas? TR EN

  • Download 5x Faster
  • Download torrent
  • Direct Download
  • Rate this torrent +  |  -
The International Dual Audio EN TR[Leo] avi Uluslararas? TR EN

Free and Direct Download with Usenet.nl 300GB+ free


Torrent info

Name:The International Dual Audio EN TR[Leo] avi Uluslararas? TR EN

Total Size: 813.11 MB

Magnet: Magnet Link

Seeds: 0

Leechers: 0

Stream: Watch Online @ Movie4u

Last Updated: 0000-00-00 00:00:00 (Update Now)

Torrent added: 2009-09-09 07:20:18





Torrent Files List


The International Dual Audio EN-TR[Leo].avi (Size: 813.11 MB) (Files: 1)

 The International Dual Audio EN-TR[Leo].avi

813.11 MB
 

Announce URL: http://inferno.demonoid.com:3389/announce

Torrent description

The International /Uluslararas?
Dual audio support English&Turkish
Source Noir

Bu film çift dil destegine sahiptir Turkce ve Ingilizce

Format : AVI
Format/Info : Audio Video Interleave
File size : 813 MiB
Duration : 1h 57mn
Overall bit rate : 969 Kbps
Copyright : By Noir
Video
Format : MPEG-4 Visual
Format profile : Streaming [email protected]
Format settings, BVOP : Yes
Format settings, QPel : No
Format settings, GMC : No warppoints
Format settings, Matrix : Default
Muxing mode : Packed bitstream
Codec ID : XVID
Codec ID/Hint : XviD
Duration : 1h 57mn
Bit rate : 716 Kbps
Width : 640 pixels
Height : 272 pixels
Display aspect ratio : 2.35
Frame rate : 23.976 fps
Resolution : 24 bits
Colorimetry : 4:2:0
Scan type : Progressive
Bits/(Pixel*Frame) : 0.172
Stream size : 601 MiB (74%)
Writing library : XviD 50
Audio
Format : MPEG Audio
Format version : Version 1
Format profile : Layer 3
Codec ID : 55
Codec ID/Hint : MP3
Duration : 1h 57mn
Bit rate mode : Constant
Bit rate : 128 Kbps
Channel(s) : 2 channels
Sampling rate : 48.0 KHz
Resolution : 16 bits
Stream size : 107 MiB (13%)
Alignment : Aligned on interleaves
Interleave, duration : 42 ms (1.00 video frame)
Interleave, preload duration : 504 ms
Audio
Format : MPEG Audio
Format version : Version 1
Format profile : Layer 3
Codec ID : 55
Codec ID/Hint : MP3
Duration : 1h 57mn
Bit rate mode : Variable
Bit rate : 107 Kbps
Channel(s) : 2 channels
Sampling rate : 48.0 KHz
Resolution : 16 bits
Stream size : 89.8 MiB (11%)
Alignment : Aligned on interleaves
Interleave, duration : 24 ms (0.58 video frame)
Interleave, preload duration : 394 ms

related torrents

Torrent name

health leech seeds Size
 

comments (0)

Main Menu