Horror

Deadgirl 2008 DVDRIP XviD ZEKTORM

  • Download 5x Faster
  • Download torrent
  • Direct Download
  • Rate this torrent +  |  -
Deadgirl 2008 DVDRIP XviD ZEKTORM

Free and Direct Download with Usenet 300GB+ free


Torrent info

Name:Deadgirl 2008 DVDRIP XviD ZEKTORM

Total Size: 705.01 MB

Magnet: Magnet Link

Seeds: 5

Leechers: 1

Stream: Watch Online @ Movie4u

Last Updated: 2016-11-14 09:18:25 (Update Now)

Torrent added: 2009-09-09 07:18:56




Torrent Files List


Deadgirl.2008.DVDRIP.XviD-ZEKTORM.avi (Size: 705.01 MB) (Files: 5)

 Deadgirl.2008.DVDRIP.XviD-ZEKTORM.avi

701.22 MB

 READ.hlp

10.97 KB

 Subs

  Deadgirl.2008.DVDRIP.XviD-ZEKTORM.idx

49.79 KB

  Deadgirl.2008.DVDRIP.XviD-ZEKTORM.sub

3.73 MB

 Torrent downloaded from Demonoid.com.txt

0.05 KB
 

tracker

leech seeds
 

Torrent description

Title : Deadgirl
Year : 2008
Genre : Horror
iMDB URL : http://www.imdb.com/title/tt0896534/

Complete name : Deadgirl.2008.DVDRIP.XviD-ZEKTORM.avi
Format : AVI
File size : 701 MiB
Duration : 1h 41mn
Overall bit rate : 965 Kbps
Subtitles : English (Format: VobSub)
Source : DVD NTSC
Video
Format : MPEG-4 Visual
Format profile : Streaming [email protected]
Codec ID : XVID
Codec ID/Hint : XviD
Duration : 1h 41mn
Bit rate : 841 Kbps
Width : 720 pixels
Height : 320 pixels
Display aspect ratio : 2.25
Frame rate : 23.976 fps
Resolution : 24 bits
Colorimetry : 4:2:0
Scan type : Progressive
Bits/(Pixel*Frame) : 0.152
Stream size : 612 MiB (87%)
Writing library : XviD

Audio
Format : MPEG Audio
Format version : Version 1
Format profile : Layer 3
Codec ID : 55
Codec ID/Hint : MP3
Duration : 1h 41mn
Bit rate mode : Variable
Bit rate : 111 Kbps
Minimum bit rate : 128 Kbps
Channel(s) : 2 channels
Sampling rate : 48.0 KHz
Resolution : 16 bits
Stream size : 80.4 MiB (11%)
Writing library : LAME3.98r
Encoding settings : ABR

related torrents

Torrent name

health leech seeds Size
 

comments (0)

Main Menu