Movies

Pandorum (2009) Mpeg 4 (ipone) (nl Subs) 2lions team

  • Download 5x Faster
  • Download torrent
  • Direct Download
  • Rate this torrent +  |  -
Pandorum (2009) Mpeg 4 (ipone) (nl Subs) 2lions team

Free and Direct Download with Usenet 300GB+ free


Torrent info

Name:Pandorum (2009) Mpeg 4 (ipone) (nl Subs) 2lions team

Total Size: 1.18 GB

Magnet: Magnet Link

Seeds: 0

Leechers: 0

Stream: Watch Online @ Movie4u

Last Updated: 2015-09-20 08:47:36 (Update Now)

Torrent added: 2009-11-12 07:01:42




Torrent Files List


00-VA-Nos-NoFS The Mixtape.Vol.2-(Bootleg)-2009-[NoFS]-BACK.jpg (Size: 46.09 MB) (Files: 12)

 00-VA-Nos-NoFS The Mixtape.Vol.2-(Bootleg)-2009-[NoFS]-BACK.jpg

111.08 KB

 00-VA-Nos-NoFS The Mixtape.Vol.2-(Bootleg)-2009-[NoFS]-COVER.jpg

55.63 KB

 00-VA-Nos-NoFS The Mixtape.Vol.2-(Bootleg)-2009-[NoFS]-SM-COVER.jpg

31.40 KB

 00-VA-Nos-NoFS The Mixtape.Vol.2-(Bootleg)-2009-[NoFS].m3u

2.13 KB

 00-VA-Nos-NoFS The Mixtape.Vol.2-(Bootleg)-2009-[NoFS].nfo

9.68 KB

 02-Gravy Ft. Rick Ross And Magazeen-Pound Dat.mp3

8.65 MB

 09-Juice Ft. Stacee Adamz And Scoobie-Hood Hall Of Fame.mp3

7.17 MB

 11-Yo Gotti Ft. Gucci Mane, Trina And Lil Boosie-5 Star (Remix).mp3

9.54 MB

 12-Jacki-O Ft. Gucci Mane-Show U Hot To Do It.mp3

7.63 MB

 13-Yo Gotti-You're A Jerk (Freestyle).mp3

7.36 MB

 15-Willie The Kid-The Pain And The Passion (Prod. By Detroit Red).mp3

5.54 MB

 VA-Nos-NoFS The Mixtape.Vol.2-(Bootleg)-2009-[NoFS].sfv

1.54 KB
 

tracker

leech seeds
 

Torrent description

Pandorum (2009) MPEG-4 (IPONE)




**********Vanaf 22 oktober in de bioscoop************

Genre : Horror
Science Fiction

Verenigde Staten / Duitsland
Horror / Science-Fiction
108 minuten

geregisseerd door Christian Alvart
met Dennis Quaid, Ben Foster en Cam Gigandet

Payton (Dennis Quaid) en Bower (Ben Foster) zijn twee ruimtereizigers die wakker worden op hun schip zonder dat ze nog weten wat hun missie was. Als ze door wat wazige herinneringen proberen uit te vinden wat hun doel was op deze missie, komen ze erachter dat ze niet alleen zijn, maar dat ''iets'' het op hen heeft gemunt...


English

Two crew members are stranded on a spacecraft and quickly - and horrifically - realize they are not alone. Two astronauts awaken in a hyper-sleep chamber aboard a seemingly abandoned spacecraft. It's pitch black, they are disoriented, and the only sound is a low rumble and creak from the belly of the ship. They can't remember anything: Who are they? What is their mission? With Lt. Payton staying behind to guide him via radio transmitter, Cpl. Bower ventures deep into the ship and begins to uncover a terrifying reality. Slowly the spacecraft's shocking, deadly secrets are revealed...and the astronauts find their own survival is more important than they could ever have imagined.



Source.............: Pandorum.2009.D.DVD.ELEKTRI4KA
Audio : English
Subs : Dutch (HARDCODED)

Format : MPEG-4
Format profile : Base Media
Codec ID : isom
File size : 1.18 GiB
Duration : 1h 43mn
Overall bit rate : 1 631 Kbps


Video
ID : 1
Format : MPEG-4 Visual
Format profile : [email protected]
Format settings, BVOP : No
Format settings, QPel : No
Format settings, GMC : No warppoints
Format settings, Matrix : Default (H.263)
Codec ID : 20
Duration : 1h 43mn
Bit rate mode : Variable
Bit rate : 1 498 Kbps
Width : 720 pixels
Height : 406 pixels
Display aspect ratio : 16/9
Frame rate mode : Constant
Frame rate : 25.000 fps
Resolution : 24 bits
Colorimetry : 4:2:0
Scan type : Progressive
Bits/(Pixel*Frame) : 0.205
Stream size : 1.08 GiB (92%)
Writing library : Lavc51.40.4


Audio
ID : 2
Format : AAC
Format/Info : Advanced Audio Codec
Format version : Version 4
Format profile : LC
Format settings, SBR : No
Codec ID : 40
Duration : 1h 43mn
Bit rate mode : Variable
Bit rate : 128 Kbps
Channel(s) : 2 channels
Channel positions : L R
Sampling rate : 48.0 KHz
Resolution : 16 bits
Stream size : 94.8 MiB (8%)




Genre : Horror
Science Fiction

Weblink : http://www.moviemeter.nl/film/53151
Weblink : http://www.imdb.com/title/tt1188729


*****************************************

Brought to you by
2Lions Team



meer zien??
Kom dan eens kijken op ons forum

http://www.2lions.ons-forum.nl

2Lions-Team for all your Dutch MOVIES and more

*****************************************

DON T HIT AND RUN Niet gelijk afhaken als de film binnen is blijf seeden.

related torrents

Torrent name

health leech seeds Size
 

comments (0)

Main Menu