Movies

2012 Supernova (2009) Dvdrip X264 350 Mb

  • Download 5x Faster
  • Download torrent
  • Direct Download
  • Rate this torrent +  |  -
2012 Supernova (2009) Dvdrip X264 350 Mb

Download FREE And Anonymously


Torrent info

Name:2012 Supernova (2009) Dvdrip X264 350 Mb

Total Size: 355.70 MB

Magnet: Magnet Link

Seeds: 0

Leechers: 3

Stream: Watch Full Movie @ Movie4u

Last Updated: 2010-09-23 02:51:49 (Update Now)

Torrent added: 2009-11-12 06:18:22



VPN For Torrents

Torrent Files List


04 Drink Your Tears.mp3 (Size: 53.75 MB) (Files: 19)

 04 Drink Your Tears.mp3

3.05 MB

 09 Leave Me Alone.mp3

3.09 MB

 02 Giraffe.mp3

3.55 MB

 07 Love Hides.mp3

4.03 MB

 05 Let The Dark Come.mp3

4.37 MB

 01 Such Is Life.mp3

5.39 MB

 06 On A Summer's Afternoon.mp3

6.15 MB

 08 A Beautiful Day.mp3

6.56 MB

 10 I Go To Bed.mp3

7.19 MB

 12 What Is A Man.mp3

10.36 MB

 About.txt.txt

0.08 KB

 Lyric - Drink Your Tears.txt

0.42 KB

 Lyric - Love Hides.txt

0.47 KB

 Lyric - Giraffe.txt

0.54 KB

 Lyric - Such Is Life.txt

0.56 KB

 Lyric - On A Summer's Afternoon.txt

0.81 KB

 Lyric - Let the Dark Come.txt

0.84 KB

 Lyric - A Beautiful Day.txt

0.96 KB

 Lyric - I Go To Bed.txt

1.16 KB
 

Announce URL: http://tracker.thepiratebay.org/announce

Torrent description

Format : Matroska
File size : 351 MiB
Duration : 1h 27mn
Overall bit rate : 564 Kbps
Writing application : HandBrake 0.9.3

Video
ID : 1
Format : AVC
Format/Info : Advanced Video Codec
Format profile : [email protected]
Format settings, CABAC : Yes
Format settings, ReFrames : 2 frames
Muxing mode : Container [email protected]
Codec ID : V_MPEG4/ISO/AVC
Duration : 1h 27mn
Bit rate : 393 Kbps
Nominal bit rate : 398 Kbps
Width : 624 pixels
Height : 352 pixels
Display aspect ratio : 16:9
Frame rate : 23.976 fps
Resolution : 24 bits
Colorimetry : 4:2:0
Scan type : Progressive
Bits/(Pixel*Frame) : 0.075
Stream size : 244 MiB (70%)
Writing library : x264 core 65
Encoding settings : cabac=1 / ref=2 / deblock=1:0:0 / analyse=0x1:0x111 / me=umh / subme=6 / psy_rd=1.0:0.0 / mixed_ref=0 / me_range=16 / chroma_me=1 / trellis=0 / 8x8dct=0 / cqm=0 / deadzone=21,11 / chroma_qp_offset=-2 / threads=3 / nr=0 / decimate=1 / mbaff=0 / bframes=2 / b_pyramid=0 / b_adapt=1 / b_bias=0 / direct=1 / wpredb=0 / keyint=240 / keyint_min=24 / scenecut=40(pre) / rc=2pass / bitrate=398 / ratetol=1.0 / qcomp=0.60 / qpmin=10 / qpmax=51 / qpstep=4 / cplxblur=20.0 / qblur=0.5 / ip_ratio=1.40 / pb_ratio=1.30 / aq=1:1.00
colour_primaries : BT.601-6 525, BT.1358 525, BT.1700 NTSC, SMPTE 170M
transfer_characteristics : BT.709-5, BT.1361
matrix_coefficients : BT.601-6 525, BT.1358 525, BT.1700 NTSC, SMPTE 170M

Audio
ID : 2
Format : MPEG Audio
Format version : Version 1
Format profile : Layer 3
Codec ID : A_MPEG/L3
Codec ID/Hint : MP3
Duration : 1h 27mn
Bit rate mode : Constant
Bit rate : 160 Kbps
Channel(s) : 2 channels
Sampling rate : 48.0 KHz
Resolution : 16 bits
Stream size : 99.7 MiB (28%)
Writing library : LAME3.98



SCREENSHOTS : " border="0" alt="2012 Supernova (2009) Dvdrip X264 350 Mb preview 0"/>" rel="nofollow">
2012 Supernova (2009) Dvdrip X264 350 Mb preview 1" border="0" alt="2012 Supernova (2009) Dvdrip X264 350 Mb preview 0"/>

related torrents

Torrent name

health leech seeds Size
 


comments (0)

Main Menu

 

script data-cfasync="false" src="//d2ghscazvn398x.cloudfront.net/?cshgd=690275">