Movies

Inglourious Basterds Ppv Xvid imagine

  • Download 5x Faster
  • Download torrent
  • Direct Download
  • Rate this torrent +  |  -
Inglourious Basterds Ppv Xvid imagine

Free and Direct Download with Usenet 300GB+ free


Torrent info

Name:Inglourious Basterds Ppv Xvid imagine

Total Size: 1.10 GB

Magnet: Magnet Link

Seeds: 0

Leechers: 0

Stream: Watch Online @ Movie4u

Last Updated: 2015-09-20 12:01:43 (Update Now)

Torrent added: 2009-11-12 02:01:01




Torrent Files List


000-va-motown_50_yesterday_today_forever-3cd-2008-(disks).jpg (Size: 177.02 MB) (Files: 48)

 000-va-motown_50_yesterday_today_forever-3cd-2008-(disks).jpg

906.72 KB

 000-va-motown_50_yesterday_today_forever-3cd-2008-(front.back).jpg

825.08 KB

 000-va-motown_50_yesterday_today_forever-3cd-2008.m3u

2.25 KB

 100-va-motown_50_yesterday_today_forever-cd1-2008.m3u

0.73 KB

 104-marvin_gaye_-_whats_going_on.mp3

5.36 MB

 107-frank_wilson_-_do_i_love_you_(indeed_i_do).mp3

2.62 MB

 108-marvin_gaye_-_i_heard_it_through_the_grapevine.mp3

4.72 MB

 110-the_temptation_-_my_girl.mp3

3.88 MB

 111-the_isley_brothers_-_this_old_heart_of_mine_(is_weak_for_you).mp3

2.43 MB

 112-diana_ross_-_aint_no_mountain_high_enough.mp3

5.81 MB

 113-four_tops_-_reach_out_ill_be_there.mp3

3.99 MB

 114-the_supremes_-_you_cant_hurry_love.mp3

4.35 MB

 115-the_elgins_-_heaven_must_have_sent_you.mp3

2.32 MB

 116-marvin_gaye_-_lets_get_it_on.mp3

7.44 MB

 117-smokey_robinson_-_the_tears_of_a_clown.mp3

3.38 MB

 200-va-motown_50_yesterday_today_forever-cd2-2008.m3u

0.81 KB

 201-the_temptations_-_papa_was_a_rollinstone.mp3

9.72 MB

 202-jimmy_ruffin_-_what_becomes_of_the_brokenhearted.mp3

3.99 MB

 203-martha_reeves_and_the_vandellas_-_heatwave.mp3

2.69 MB

 204-the_velvettes_-_needle_ina_a_haystack.mp3

3.00 MB

 205-smokey_robinson_and_the_miracles_-_the_tracks_of_my_tears.mp3

4.30 MB

 206-the_temptations_-_aint_too_proud_to_beg.mp3

4.56 MB

 207-the_supremes_-_stop_in_the_name_of_love.mp3

2.51 MB

 208-the_supremes_-_stoned_love.mp3

4.42 MB

 209-the_supremes_-_baby_love.mp3

2.55 MB

 210-martha_reeves_and_the_vandellas_-_dancing_in_the_street.mp3

3.96 MB

 212-martha_reeves_and_the_vandellas_-_nowhere_to_run.mp3

4.45 MB

 213-diana_ross_and_lionel_richie_-_endless_love.mp3

6.35 MB

 214-edwin_starr_-_twenty_five_miles.mp3

4.88 MB

 215-stevie_wonder_-_for_once_in_my_life.mp3

4.03 MB

 216-the_temptations_-_get_ready.mp3

3.48 MB

 217-marvin_gaye_-_mercy_mercy_me_(the_ecology).mp3

4.46 MB

 300-va-motown_50_yesterday_today_forever-cd3-2008.m3u

0.75 KB

 301-the_usley_brothers_-_behind_a_painted_smile.mp3

3.74 MB

 302-stevie_wonder_-_signed_sealed_delivered_(im_yours).mp3

4.36 MB

 303-commodores_-_easy.mp3

6.14 MB

 304-marvin_gaye_and_tammy_terrel_-_aint_nothing_like_the_real_thing.mp3

3.19 MB

 305-edwin_starr_-_war.mp3

4.61 MB

 306-the_detroit_spinner_-_its_a_shame.mp3

4.72 MB

 307-the_temptations_-_just_my_imagination_(running_away_with_me).mp3

3.43 MB

 308-the_detroit_spinner_-_ill_always_love_you.mp3

3.78 MB

 309-diana_ross_and_marvin_gaye_-_you_are_everything.mp3

4.01 MB

 310-diana_ross_-_im_still_waiting.mp3

6.17 MB

 311-the_marvelettes_-_when_youre_young_and_in_love.mp3

2.23 MB

 312-the_miracles_-_going_to_a_go-go.mp3

4.17 MB

 314-mary_wells_-_my_guy.mp3

3.01 MB

 315-the_marvelettes_-_please_mr_postman.mp3

2.36 MB

 316-four_tops_-_standing_in_the_shadows_of_love.mp3

3.76 MB
 

tracker

leech seeds
 

Torrent description

Inglourious Basterds PPV XViD-IMAGiNE

Ripper ...........: IMAGiNE
IMDB Rating.......:8.6/10
Video Codec.......: XVID
Release Date......:21/08/2009
Audio Codec.......:mp3
Audio Bitrate.....:128
Runtime...........:2h 32mn
Subtitles.........:English hard coded for foreign parts
Language..........:ENGLISH
Resolution...... 624 x 352

DETAILS:
Video
ID : 0
Format : MPEG-4 Visual
Format profile : AdvancedSimple@L5
Format settings, BVOP : Yes
Format settings, QPel : No
Format settings, GMC : No warppoints
Format settings, Matrix : Default (H.263)
Muxing mode : Packed bitstream
Codec ID : XVID
Codec ID/Hint : XviD
Duration : 2h 32mn
Bit rate : 888 Kbps
Width : 624 pixels
Height : 352 pixels
Display aspect ratio : 16:9
Frame rate : 23.976 fps
Resolution : 24 bits
Colorimetry : 4:2:0
Scan type : Progressive
Bits/(Pixel*Frame) : 0.169
Stream size : 970 MiB (87%)
Writing library : XviD 1.2.1 (UTC 2008-12-04)
Audio
ID : 1
Format : MPEG Audio
Format version : Version 1
Format profile : Layer 3
Codec ID : 55
Codec ID/Hint : MP3
Duration : 2h 32mn
Bit rate mode : Constant
Bit rate : 128 Kbps
Channel(s) : 2 channels
Sampling rate : 48.0 KHz
Resolution : 16 bits
Stream size : 140 MiB (12%)
Alignment : Split accross interleaves
Interleave, duration : 42 ms (1.00 video frame)
Interleave, preload duration : 500 ms
Writing library : LAME3.98.2


Screens: " border="0" alt="Inglourious Basterds Ppv Xvid imagine preview 0"/>" rel="nofollow">
Inglourious Basterds Ppv Xvid imagine preview 1" border="0" alt="Inglourious Basterds Ppv Xvid imagine preview 0"/>
" border="0" alt="Inglourious Basterds Ppv Xvid imagine preview 2"/>" rel="nofollow">
Inglourious Basterds Ppv Xvid imagine preview 3" border="0" alt="Inglourious Basterds Ppv Xvid imagine preview 2"/>
" border="0" alt="Inglourious Basterds Ppv Xvid imagine preview 4"/>" rel="nofollow">
Inglourious Basterds Ppv Xvid imagine preview 5" border="0" alt="Inglourious Basterds Ppv Xvid imagine preview 4"/>


Inglourious Basterds PPV XViD-IMAGiNE Torrent Free Download

related torrents

Torrent name

health leech seeds Size
 

comments (0)

Main Menu