Movies

Inglourious Basterds Ppv Xvid imagine mh

  • Download 5x Faster
  • Download torrent
  • Direct Download
  • Rate this torrent +  |  -
Inglourious Basterds Ppv Xvid imagine mh

Free and Direct Download with Usenet 300GB+ free


Torrent info

Name:Inglourious Basterds Ppv Xvid imagine mh

Total Size: 1.10 GB

Magnet: Magnet Link

Seeds: 0

Leechers: 0

Stream: Watch Online @ Movie4u

Last Updated: 2015-09-20 12:01:34 (Update Now)

Torrent added: 2009-11-12 00:10:01




Torrent Files List


Sample (Size: 715.76 MB) (Files: 53)

 Sample

  vmt-pulse3-xvid-sample.avi

7.56 MB

 vmt-pulse3-xvid.nfo

10.18 KB

 vmt-pulse3-xvid.r00

14.31 MB

 vmt-pulse3-xvid.r01

14.31 MB

 vmt-pulse3-xvid.r02

14.31 MB

 vmt-pulse3-xvid.r03

14.31 MB

 vmt-pulse3-xvid.r04

14.31 MB

 vmt-pulse3-xvid.r05

14.31 MB

 vmt-pulse3-xvid.r06

14.31 MB

 vmt-pulse3-xvid.r07

14.31 MB

 vmt-pulse3-xvid.r08

14.31 MB

 vmt-pulse3-xvid.r09

14.31 MB

 vmt-pulse3-xvid.r10

14.31 MB

 vmt-pulse3-xvid.r11

14.31 MB

 vmt-pulse3-xvid.r12

14.31 MB

 vmt-pulse3-xvid.r13

14.31 MB

 vmt-pulse3-xvid.r14

14.31 MB

 vmt-pulse3-xvid.r15

14.31 MB

 vmt-pulse3-xvid.r16

14.31 MB

 vmt-pulse3-xvid.r17

14.31 MB

 vmt-pulse3-xvid.r18

14.31 MB

 vmt-pulse3-xvid.r19

14.31 MB

 vmt-pulse3-xvid.r20

14.31 MB

 vmt-pulse3-xvid.r21

14.31 MB

 vmt-pulse3-xvid.r22

14.31 MB

 vmt-pulse3-xvid.r23

14.31 MB

 vmt-pulse3-xvid.r24

14.31 MB

 vmt-pulse3-xvid.r25

14.31 MB

 vmt-pulse3-xvid.r26

14.31 MB

 vmt-pulse3-xvid.r27

14.31 MB

 vmt-pulse3-xvid.r28

14.31 MB

 vmt-pulse3-xvid.r29

14.31 MB

 vmt-pulse3-xvid.r30

14.31 MB

 vmt-pulse3-xvid.r31

14.31 MB

 vmt-pulse3-xvid.r32

14.31 MB

 vmt-pulse3-xvid.r33

14.31 MB

 vmt-pulse3-xvid.r34

14.31 MB

 vmt-pulse3-xvid.r35

14.31 MB

 vmt-pulse3-xvid.r36

14.31 MB

 vmt-pulse3-xvid.r37

14.31 MB

 vmt-pulse3-xvid.r38

14.31 MB

 vmt-pulse3-xvid.r39

14.31 MB

 vmt-pulse3-xvid.r40

14.31 MB

 vmt-pulse3-xvid.r41

14.31 MB

 vmt-pulse3-xvid.r42

14.31 MB

 vmt-pulse3-xvid.r43

14.31 MB

 vmt-pulse3-xvid.r44

14.31 MB

 vmt-pulse3-xvid.r45

14.31 MB

 vmt-pulse3-xvid.r46

14.31 MB

 vmt-pulse3-xvid.r47

14.31 MB

 vmt-pulse3-xvid.r48

7.24 MB

 vmt-pulse3-xvid.rar

14.31 MB

 vmt-pulse3-xvid.sfv

1.46 KB
 

tracker

leech seeds
 

Torrent description

Another Fine Release Brought to you from - IMAGiNE

http://imaginegroup.me/



********************************************************************************************************************

Inglourious Basterds PPV XViD-IMAGiNE

********************************************************************************************************************



Ripper: IMAGiNE IMDB Rating.......:8.6/10

Video Codec: XVID Release Date......:21/08/2009

Audio Codec.......:mp3

Audio Bitrate.....:128 Runtime...........:2h 32mn

Subtitles.........:Englisg hard coded for foreign parts :D Language..........:ENGLISH

Resolution...... 624 x 352 IMDB URL..........:http://www.imdb.com/title/tt1119646/ [color=yellow]DETAILS:[/color]

Video

ID: 0

Format: MPEG-4 Visual

Format profile: [email protected]

Format settings, BVOP: Yes

Format settings, QPel: No

Format settings, GMC: No warppoints

Format settings, Matrix: Default (H.263)

Muxing mode: Packed bitstream

Codec ID: XVID

Codec ID/Hint: XviD

Duration: 2h 32mn

Bit rate: 888 Kbps

Width: 624 pixels

Height: 352 pixels

Display aspect ratio: 16:9

Frame rate: 23.976 fps

Resolution: 24 bits

Colorimetry: 4:2:0

Scan type: Progressive

Bits/(Pixel*Frame): 0.169

Stream size: 970 MiB (87%)

Writing library: XviD 1.2.1 (UTC 2008-12-04)

Audio

ID: 1

Format: MPEG Audio

Format version: Version 1

Format profile: Layer 3

Codec ID: 55

Codec ID/Hint: MP3

Duration: 2h 32mn

Bit rate mode: Constant

Bit rate: 128 Kbps

Channel(s): 2 channels

Sampling rate: 48.0 KHz

Resolution: 16 bits

Stream size: 140 MiB (12%)

Alignment: Split accross interleaves

Interleave, duration: 42 ms (1.00 video frame)

Interleave, preload duration: 500 ms

Writing library: LAME3.98.2 [color=yellow]NOTES:[/color]



IMAGiNE bringing you another release

First off a BIG THANKS for TC69 for the AVI file used ;) Well to start with the file I have recieved was 700mb, So for the video, I cropped Black borders and applied a few filters, also upped the bitrate. The audio is really great, nothin done with it

This release has english subs correct and synced. Keep in mind its a PPV ;)

Take it or leave it :) [color=red]Extra notes:[/color]

To you moaners out there

Yes sorry we blew the tag on 1 release. Unfortunately, once you get that ball rolling you people dont know when to put it away. The Surrogates Release was a DVDRip. All that was done was a straight rip from the DVD source

Even your so called "Scene" rules dont state what the source has to be .So from now on we'll make the moaners Happy ... R5 DvDRip

If you dont like this , dont download or releases. We do this for us and our friends (yes we do have some) . So if your sitting there and saying "what an ass" obviously you arent one of them ;) [color=yellow]SCREENS:[/color] Inglourious Basterds Ppv Xvid imagine mh preview 0 http://lookpic.com/i/499/ln35lRrr.jpeg http://lookpic.com/i/647/OqChSAye.jpeg [color=yellow]GREETS:[/color]



FLAWL3SS,ViSiON,DEViSE,FUSiON,STG,SecretMyth,Lynks

And to all the other p2p grps past and present



Special thanks to Python-Lair for the server :) [COLOR=RED]Looking for these,syncers,*CAMMER*,silver supplier.....Have anything to offer????

Contact us [email protected][/COLOR]

related torrents

Torrent name

health leech seeds Size
 

comments (0)