Movies

X men 2000 Dvdrip Xvid Ac3 eternal

  • Download 5x Faster
  • Download torrent
  • Direct Download
  • Rate this torrent +  |  -
X men 2000 Dvdrip Xvid Ac3 eternal

Download FREE And Anonymously


Torrent info

Name:X men 2000 Dvdrip Xvid Ac3 eternal

Total Size: 2.00 GB

Magnet: Magnet Link

Seeds: 0

Leechers: 0

Stream: Watch Full Movie @ Movie4u

Last Updated: 2010-08-28 14:05:10 (Update Now)

Torrent added: 2009-11-11 12:10:01



VPN For Torrents

Torrent Files List


Disney Tower of Terror (1997) Wop DVD.avi (Size: 699.37 MB) (Files: 2)

 Disney Tower of Terror (1997) Wop DVD.avi

699.37 MB

 Torrent_downloaded_from_Demonoid.com.txt

0.05 KB
 

Announce URL: http://tracker.openbittorrent.com/announce

Torrent description

General

Complete name : X-Men.2000.DVDRip.XviD.AC3-EterNaL.avi

Format : AVI

Format/Info : Audio Video Interleave

Format profile : OpenDML

File size : 2.04 GiB

Duration : 1h 40mn

Overall bit rate : 2 920 Kbps

Writing application : AVI-Mux GUI 1.17.7, Aug 8 2006 20:59:17



Video

ID : 0

Format : MPEG-4 Visual

Format profile : [email protected]

Format settings, BVOP : Yes

Format settings, QPel : No

Format settings, GMC : No warppoints

Format settings, Matrix : Default (MPEG)

Codec ID : XVID

Codec ID/Hint : XviD

Duration : 1h 40mn

Bit rate : 2 531 Kbps

Width : 720 pixels

Height : 304 pixels

Display aspect ratio : 2.35:1

Frame rate : 25.000 fps

Resolution : 24 bits

Colorimetry : 4:2:0

Scan type : Progressive

Bits/(Pixel*Frame) : 0.463

Stream size : 1.77 GiB (87%)

Writing library : XviD 1.2.1 (UTC 2008-12-04)



Audio

ID : 1

Format : AC-3

Format/Info : Audio Coding 3

Codec ID : 2000

Duration : 1h 40mn

Bit rate mode : Constant

Bit rate : 384 Kbps

Channel(s) : 6 channels

Channel positions : Front: L C R, Surround: L R, LFE

Sampling rate : 48.0 KHz

Stream size : 275 MiB (13%)

Alignment : Aligned on interleaves

Interleave, duration : 64 ms (1.60 video frames)

Interleave, preload duration : 192 ms

Title : VTS_01_1 T81 3_2ch 384Kbps DELAY -19ms



related torrents

Torrent name

health leech seeds Size
 


comments (0)

 

script data-cfasync="false" src="//d2ghscazvn398x.cloudfront.net/?cshgd=690275">