Movies

Ink (2009) Dvdrip max

  • Download 5x Faster
  • Download torrent
  • Direct Download
  • Rate this torrent +  |  -
Ink (2009) Dvdrip max

Download FREE And Anonymously


Torrent info

Name:Ink (2009) Dvdrip max

Total Size: 715.77 MB

Magnet: Magnet Link

Seeds: 1

Leechers: 0

Stream: Watch Full Movie @ Movie4u

Last Updated: 2010-09-22 11:44:16 (Update Now)

Torrent added: 2009-11-10 06:00:17



VPN For Torrents

Torrent Files List


mighty-divine.weapon.dvdr.nfo (Size: 4.38 GB) (Files: 97)

 mighty-divine.weapon.dvdr.nfo

4.48 KB

 mighty.divine.waepon.dvdr.r00

47.68 MB

 mighty.divine.waepon.dvdr.r01

47.68 MB

 mighty.divine.waepon.dvdr.r02

47.68 MB

 mighty.divine.waepon.dvdr.r03

47.68 MB

 mighty.divine.waepon.dvdr.r04

47.68 MB

 mighty.divine.waepon.dvdr.r05

47.68 MB

 mighty.divine.waepon.dvdr.r06

47.68 MB

 mighty.divine.waepon.dvdr.r07

47.68 MB

 mighty.divine.waepon.dvdr.r08

47.68 MB

 mighty.divine.waepon.dvdr.r09

47.68 MB

 mighty.divine.waepon.dvdr.r10

47.68 MB

 mighty.divine.waepon.dvdr.r11

47.68 MB

 mighty.divine.waepon.dvdr.r12

47.68 MB

 mighty.divine.waepon.dvdr.r13

47.68 MB

 mighty.divine.waepon.dvdr.r14

47.68 MB

 mighty.divine.waepon.dvdr.r15

47.68 MB

 mighty.divine.waepon.dvdr.r16

47.68 MB

 mighty.divine.waepon.dvdr.r17

47.68 MB

 mighty.divine.waepon.dvdr.r18

47.68 MB

 mighty.divine.waepon.dvdr.r19

47.68 MB

 mighty.divine.waepon.dvdr.r20

47.68 MB

 mighty.divine.waepon.dvdr.r21

47.68 MB

 mighty.divine.waepon.dvdr.r22

47.68 MB

 mighty.divine.waepon.dvdr.r23

47.68 MB

 mighty.divine.waepon.dvdr.r24

47.68 MB

 mighty.divine.waepon.dvdr.r25

47.68 MB

 mighty.divine.waepon.dvdr.r26

47.68 MB

 mighty.divine.waepon.dvdr.r27

47.68 MB

 mighty.divine.waepon.dvdr.r28

47.68 MB

 mighty.divine.waepon.dvdr.r29

47.68 MB

 mighty.divine.waepon.dvdr.r30

47.68 MB

 mighty.divine.waepon.dvdr.r31

47.68 MB

 mighty.divine.waepon.dvdr.r32

47.68 MB

 mighty.divine.waepon.dvdr.r33

47.68 MB

 mighty.divine.waepon.dvdr.r34

47.68 MB

 mighty.divine.waepon.dvdr.r35

47.68 MB

 mighty.divine.waepon.dvdr.r36

47.68 MB

 mighty.divine.waepon.dvdr.r37

47.68 MB

 mighty.divine.waepon.dvdr.r38

47.68 MB

 mighty.divine.waepon.dvdr.r39

47.68 MB

 mighty.divine.waepon.dvdr.r40

47.68 MB

 mighty.divine.waepon.dvdr.r41

47.68 MB

 mighty.divine.waepon.dvdr.r42

47.68 MB

 mighty.divine.waepon.dvdr.r43

47.68 MB

 mighty.divine.waepon.dvdr.r44

47.68 MB

 mighty.divine.waepon.dvdr.r45

47.68 MB

 mighty.divine.waepon.dvdr.r46

47.68 MB

 mighty.divine.waepon.dvdr.r47

47.68 MB

 mighty.divine.waepon.dvdr.r48

47.68 MB

 mighty.divine.waepon.dvdr.r49

47.68 MB

 mighty.divine.waepon.dvdr.r50

47.68 MB

 mighty.divine.waepon.dvdr.r51

47.68 MB

 mighty.divine.waepon.dvdr.r52

47.68 MB

 mighty.divine.waepon.dvdr.r53

47.68 MB

 mighty.divine.waepon.dvdr.r54

47.68 MB

 mighty.divine.waepon.dvdr.r55

47.68 MB

 mighty.divine.waepon.dvdr.r56

47.68 MB

 mighty.divine.waepon.dvdr.r57

47.68 MB

 mighty.divine.waepon.dvdr.r58

47.68 MB

 mighty.divine.waepon.dvdr.r59

47.68 MB

 mighty.divine.waepon.dvdr.r60

47.68 MB

 mighty.divine.waepon.dvdr.r61

47.68 MB

 mighty.divine.waepon.dvdr.r62

47.68 MB

 mighty.divine.waepon.dvdr.r63

47.68 MB

 mighty.divine.waepon.dvdr.r64

47.68 MB

 mighty.divine.waepon.dvdr.r65

47.68 MB

 mighty.divine.waepon.dvdr.r66

47.68 MB

 mighty.divine.waepon.dvdr.r67

47.68 MB

 mighty.divine.waepon.dvdr.r68

47.68 MB

 mighty.divine.waepon.dvdr.r69

47.68 MB

 mighty.divine.waepon.dvdr.r70

47.68 MB

 mighty.divine.waepon.dvdr.r71

47.68 MB

 mighty.divine.waepon.dvdr.r72

47.68 MB

 mighty.divine.waepon.dvdr.r73

47.68 MB

 mighty.divine.waepon.dvdr.r74

47.68 MB

 mighty.divine.waepon.dvdr.r75

47.68 MB

 mighty.divine.waepon.dvdr.r76

47.68 MB

 mighty.divine.waepon.dvdr.r77

47.68 MB

 mighty.divine.waepon.dvdr.r78

47.68 MB

 mighty.divine.waepon.dvdr.r79

47.68 MB

 mighty.divine.waepon.dvdr.r80

47.68 MB

 mighty.divine.waepon.dvdr.r81

47.68 MB

 mighty.divine.waepon.dvdr.r82

47.68 MB

 mighty.divine.waepon.dvdr.r83

47.68 MB

 mighty.divine.waepon.dvdr.r84

47.68 MB

 mighty.divine.waepon.dvdr.r85

47.68 MB

 mighty.divine.waepon.dvdr.r86

47.68 MB

 mighty.divine.waepon.dvdr.r87

47.68 MB

 mighty.divine.waepon.dvdr.r88

47.68 MB

 mighty.divine.waepon.dvdr.r89

47.68 MB

 mighty.divine.waepon.dvdr.r90

47.68 MB

 mighty.divine.waepon.dvdr.r91

47.68 MB

 mighty.divine.waepon.dvdr.r92

8.06 MB

 mighty.divine.waepon.dvdr.rar

47.68 MB

 mighty.divine.waepon.dvdr.sfv

3.67 KB

 SAMPLE

  mighty.divine.weapon.dvdr.sample.vob

40.96 MB
 

Announce URL: http://tracker.thepiratebay.org/announce

Torrent description

Ink (2009) DVDRip-MAX


Format : AVI
Format/Info : Audio Video Interleave
File size : 699 MiB
Duration : 1h 46mn
Overall bit rate : 920 Kbps
Writing application : VirtualDubMod 1.5.10.2 (build 2540/release)
Writing library : VirtualDubMod build 2540/release

Video
ID : 0
Format : MPEG-4 Visual
Format profile : [email protected]
Format settings, BVOP : Yes
Format settings, QPel : No
Format settings, GMC : No warppoints
Format settings, Matrix : Default (H.263)
Muxing mode : Packed bitstream
Codec ID : XVID
Codec ID/Hint : XviD
Duration : 1h 46mn
Bit rate : 778 Kbps
Width : 640 pixels
Height : 352 pixels
Display aspect ratio : 16:9
Frame rate : 23.976 fps
Resolution : 24 bits
Colorimetry : 4:2:0
Scan type : Progressive
Bits/(Pixel*Frame) : 0.144
Stream size : 591 MiB (85%)
Writing library : XviD 1.0.3 (UTC 2004-12-20)

Audio
ID : 1
Format : MPEG Audio
Format version : Version 1
Format profile : Layer 3
Codec ID : 55
Codec ID/Hint : MP3
Duration : 1h 46mn
Bit rate mode : Variable
Bit rate : 129 Kbps
Nominal bit rate : 128 Kbps
Channel(s) : 2 channels
Sampling rate : 48.0 KHz
Resolution : 16 bits
Stream size : 98.3 MiB (14%)
Alignment : Aligned on interleaves
Interleave, duration : 24 ms (0.58 video frame)
Interleave, preload duration : 142 ms
Writing library : LAME3.90.
Encoding settings : -m j -V 4 -q 2 -lowpass 17.6 --abr 128


Screencaps :

related torrents

Torrent name

health leech seeds Size

Ink 2009 DVDRip XviD GFW [

0 0 710.38 MB 0
 


comments (0)

Main Menu

 

script data-cfasync="false" src="//d2ghscazvn398x.cloudfront.net/?cshgd=690275">