Movies

Paranormal Activity Dvdrip

  • Download 5x Faster
  • Download torrent
  • Direct Download
  • Rate this torrent +  |  -
Paranormal Activity Dvdrip

Free and Direct Download with Usenet.nl 300GB+ free


Torrent info

Name:Paranormal Activity Dvdrip

Total Size: 1.17 GB

Magnet: Magnet Link

Seeds: 0

Leechers: 0

Stream: Watch Online @ Movie4u

Last Updated: 2009-12-13 14:25:50 (Update Now)

Torrent added: 2009-11-09 23:10:01





Torrent Files List


09 Dancers To A Discordant System.m4a (Size: 98.29 MB) (Files: 9)

 09 Dancers To A Discordant System.m4a

17.80 MB

 03 Bleed.m4a

13.89 MB

 02 Electric Red.m4a

11.00 MB

 04 Lethargica.m4a

10.81 MB

 07 Pineal Gland Optics.m4a

9.81 MB

 08 Pravus.m4a

9.75 MB

 06 This Spiteful Snake.m4a

9.15 MB

 05 Obzen.m4a

8.28 MB

 01 Combustion.m4a

7.80 MB
 

Announce URL: http://tracker.thepiratebay.org/announce

Torrent description

Paranormal Activity DVDRip



Format: AVI

Format/Info: Audio Video Interleave

File size: 1.16 GiB

Duration: 1h 37mn

Overall bit rate: 1 701 Kbps

Writing library: VirtualDub build 30091/release



Video

ID: 0

Format: MPEG-4 Visual

Format profile: [email protected]

Format settings, BVOP: No

Format settings, QPel: No

Format settings, GMC: No warppoints

Format settings, Matrix: Default (MPEG)

Codec ID: XVID

Codec ID/Hint: XviD

Duration: 1h 37mn

Bit rate: 1 497 Kbps

Width: 852 pixels

Height: 480 pixels

Display aspect ratio: 16:9

Frame rate: 29.970 fps

Resolution: 24 bits

Colorimetry: 4:2:0

Scan type: Progressive

Bits/(Pixel*Frame): 0.122

Stream size: 1.02 GiB (88%)

Writing library: XviD 1.1.2 (UTC 2006-11-01)



Audio

ID: 1

Format: MPEG Audio

Format version: Version 1

Format profile: Layer 3

Codec ID: 55

Codec ID/Hint: MP3

Duration: 1h 37mn

Bit rate mode: Constant

Bit rate: 192 Kbps

Channel(s): 2 channels

Sampling rate: 44.1 KHz

Resolution: 16 bits

Video delay: 21ms

Stream size: 133 MiB (11%)

Alignment: Split accross interleaves

Interleave, duration: 33 ms (1.00 video frame)

Interleave, preload duration: 500 ms



Screens:

Paranormal Activity Dvdrip preview 0

Paranormal Activity Dvdrip preview 1

Paranormal Activity Dvdrip preview 2

related torrents

Torrent name

health leech seeds Size
 

comments (0)