Movies

Pandorum 2009 Dvdrip Imagine

  • Download 5x Faster
  • Download torrent
  • Direct Download
  • Rate this torrent +  |  -
Pandorum 2009 Dvdrip Imagine

Anonymous and Direct Download 300GB+ free


Torrent info

Name:Pandorum 2009 Dvdrip Imagine

Total Size: 775.40 MB

Magnet: Magnet Link

Seeds: 1

Leechers: 0

Stream: Watch Online @ Movie4u

Last Updated: 2009-12-13 10:26:01 (Update Now)

Torrent added: 2009-11-09 21:10:01




Torrent Files List


PC.World.June.2009.nfo (Size: 40.36 MB) (Files: 5)

 PC.World.June.2009.nfo

0.09 KB

 PC.World.June.2009.r00

14.31 MB

 PC.World.June.2009.r01

11.75 MB

 PC.World.June.2009.rar

14.31 MB

 PC.World.June.2009.sfv

0.39 KB
 

Announce URL: http://www.devilwolfs.com/announce.php

Torrent description

********************************************************************************************************************

Pandorum.2009.DVDRip - IMAGINE

********************************************************************************************************************



Ripper ...........: IMAGiNE IMDB Rating ......: 7.5/10 1,575 votes

Video Codec.......: XVID Release Date......:25 September 2009 (USA)

Audio Codec.......:MP3 Theatre Date......:25 September 2009 (USA)

Audio Bitrate.....:192 Runtime.......:1h 43mn 36sec

Subtitles.........:NIL Language..........:ENGLISH

Resolution...... 640 x 272 IMDb URL..........:http://www.imdb.com/title/tt1188729/





DETAILS:



Video

Format : MPEG-4 Visual

Format profile : Streaming [email protected]

Format settings, BVOP : Yes

Format settings, QPel : No

Format settings, GMC : No warppoints

Format settings, Matrix : Custom

Muxing mode : Packed bitstream

Codec ID : XVID

Codec ID/Hint : XviD

Duration : 1h 43mn

Bit rate : 898 Kbps

Width : 640 pixels

Height : 272 pixels

Display aspect ratio : 2.35

Frame rate : 25.000 fps

Resolution : 24 bits

Colorimetry : 4:2:0

Scan type : Progressive

Bits/(Pixel*Frame) : 0.206

Stream size : 666 MiB (87%)

Writing library : XviD 1.2.1 (UTC 2008-12-04)



Audio

Format : MPEG Audio

Format version : Version 1

Format profile : Layer 3

Codec ID : 55

Codec ID/Hint : MP3

Duration : 1h 43mn

Bit rate mode : Constant

Bit rate : 128 Kbps

Channel(s) : 2 channels

Sampling rate : 48.0 KHz

Resolution : 16 bits

Stream size : 94.9 MiB (12%)

Alignment : Split accross interleaves

Interleave, duration : 40 ms (1.00 video frame)







NOTES:



IMAGiNE bringing you another release.....

The audio is our own audio....Enjoy!



related torrents

Torrent name

health leech seeds Size
 


comments (0)