Music

Malajube Le Compte Complet (2004) (www Quebec team Net)

  • Download 5x Faster
  • Download torrent
  • Direct Download
  • Rate this torrent +  |  -
Malajube Le Compte Complet (2004) (www Quebec team Net)

Anonymous and Free Direct Download 300GB+


Torrent info

Name:Malajube Le Compte Complet (2004) (www Quebec team Net)

Total Size: 68.68 MB

Magnet: Magnet Link

Seeds: 0

Leechers: 0

Stream: Watch Online @ Movie4u

Last Updated: 2010-09-02 03:38:06 (Update Now)

Torrent added: 2009-11-09 14:10:01



VPN For Torrents

Torrent Files List


Sample (Size: 710.99 MB) (Files: 52)

 Sample

  the.incredible.human.journey.s01e05.ws.pdtv.xvid-ftp.sample.avi

11.54 MB

 the.incredible.human.journey.s01e05.ws.pdtv.xvid-ftp.nfo

3.97 KB

 the.incredible.human.journey.s01e05.ws.pdtv.xvid-ftp.r00

14.31 MB

 the.incredible.human.journey.s01e05.ws.pdtv.xvid-ftp.r01

14.31 MB

 the.incredible.human.journey.s01e05.ws.pdtv.xvid-ftp.r02

14.31 MB

 the.incredible.human.journey.s01e05.ws.pdtv.xvid-ftp.r03

14.31 MB

 the.incredible.human.journey.s01e05.ws.pdtv.xvid-ftp.r04

14.31 MB

 the.incredible.human.journey.s01e05.ws.pdtv.xvid-ftp.r05

14.31 MB

 the.incredible.human.journey.s01e05.ws.pdtv.xvid-ftp.r06

14.31 MB

 the.incredible.human.journey.s01e05.ws.pdtv.xvid-ftp.r07

14.31 MB

 the.incredible.human.journey.s01e05.ws.pdtv.xvid-ftp.r08

14.31 MB

 the.incredible.human.journey.s01e05.ws.pdtv.xvid-ftp.r09

14.31 MB

 the.incredible.human.journey.s01e05.ws.pdtv.xvid-ftp.r10

14.31 MB

 the.incredible.human.journey.s01e05.ws.pdtv.xvid-ftp.r11

14.31 MB

 the.incredible.human.journey.s01e05.ws.pdtv.xvid-ftp.r12

14.31 MB

 the.incredible.human.journey.s01e05.ws.pdtv.xvid-ftp.r13

14.31 MB

 the.incredible.human.journey.s01e05.ws.pdtv.xvid-ftp.r14

14.31 MB

 the.incredible.human.journey.s01e05.ws.pdtv.xvid-ftp.r15

14.31 MB

 the.incredible.human.journey.s01e05.ws.pdtv.xvid-ftp.r16

14.31 MB

 the.incredible.human.journey.s01e05.ws.pdtv.xvid-ftp.r17

14.31 MB

 the.incredible.human.journey.s01e05.ws.pdtv.xvid-ftp.r18

14.31 MB

 the.incredible.human.journey.s01e05.ws.pdtv.xvid-ftp.r19

14.31 MB

 the.incredible.human.journey.s01e05.ws.pdtv.xvid-ftp.r20

14.31 MB

 the.incredible.human.journey.s01e05.ws.pdtv.xvid-ftp.r21

14.31 MB

 the.incredible.human.journey.s01e05.ws.pdtv.xvid-ftp.r22

14.31 MB

 the.incredible.human.journey.s01e05.ws.pdtv.xvid-ftp.r23

14.31 MB

 the.incredible.human.journey.s01e05.ws.pdtv.xvid-ftp.r24

14.31 MB

 the.incredible.human.journey.s01e05.ws.pdtv.xvid-ftp.r25

14.31 MB

 the.incredible.human.journey.s01e05.ws.pdtv.xvid-ftp.r26

14.31 MB

 the.incredible.human.journey.s01e05.ws.pdtv.xvid-ftp.r27

14.31 MB

 the.incredible.human.journey.s01e05.ws.pdtv.xvid-ftp.r28

14.31 MB

 the.incredible.human.journey.s01e05.ws.pdtv.xvid-ftp.r29

14.31 MB

 the.incredible.human.journey.s01e05.ws.pdtv.xvid-ftp.r30

14.31 MB

 the.incredible.human.journey.s01e05.ws.pdtv.xvid-ftp.r31

14.31 MB

 the.incredible.human.journey.s01e05.ws.pdtv.xvid-ftp.r32

14.31 MB

 the.incredible.human.journey.s01e05.ws.pdtv.xvid-ftp.r33

14.31 MB

 the.incredible.human.journey.s01e05.ws.pdtv.xvid-ftp.r34

14.31 MB

 the.incredible.human.journey.s01e05.ws.pdtv.xvid-ftp.r35

14.31 MB

 the.incredible.human.journey.s01e05.ws.pdtv.xvid-ftp.r36

14.31 MB

 the.incredible.human.journey.s01e05.ws.pdtv.xvid-ftp.r37

14.31 MB

 the.incredible.human.journey.s01e05.ws.pdtv.xvid-ftp.r38

14.31 MB

 the.incredible.human.journey.s01e05.ws.pdtv.xvid-ftp.r39

14.31 MB

 the.incredible.human.journey.s01e05.ws.pdtv.xvid-ftp.r40

14.31 MB

 the.incredible.human.journey.s01e05.ws.pdtv.xvid-ftp.r41

14.31 MB

 the.incredible.human.journey.s01e05.ws.pdtv.xvid-ftp.r42

14.31 MB

 the.incredible.human.journey.s01e05.ws.pdtv.xvid-ftp.r43

14.31 MB

 the.incredible.human.journey.s01e05.ws.pdtv.xvid-ftp.r44

14.31 MB

 the.incredible.human.journey.s01e05.ws.pdtv.xvid-ftp.r45

14.31 MB

 the.incredible.human.journey.s01e05.ws.pdtv.xvid-ftp.r46

14.31 MB

 the.incredible.human.journey.s01e05.ws.pdtv.xvid-ftp.r47

12.80 MB

 the.incredible.human.journey.s01e05.ws.pdtv.xvid-ftp.rar

14.31 MB

 the.incredible.human.journey.s01e05.ws.pdtv.xvid-ftp.sfv

3.21 KB
 

Announce URL: http://www.quebec-team.net/announce.php

Torrent description

***ATTENTION***



Pour télécharger ce torrent, vous devez posséder un compte sur Quebec-Team ! et ensuite entrez votre passkey manuellement (http://www.quebec-team.net/announce.php?passkeyici) OU re-télécharger le torrent via le site. Merci!



***ATTENTION***



Lien d'origine : https://www.quebec-team.net/torrents/Musique/torrent/Malajube---Le-compte-complet-_2004_.html



[img=Malajube   Le Compte Complet (2004) (www Quebec team Net) preview 0]



Malajube - Le compte complet

Malajube



1 L'introduction 00:24

2 La maladie 01:31

3 Le robot sexy 02:43

4 Le métronome 02:43

5 L'amour sous l'eau 00:36

6 Le bataillon 01:55

7 Le jus de citron 02:43

8 Les dents 02:42

9 La Valérie 05:01

10 La conclusion 09:38



Nb de pièces : 10

Format : MP3 320 Kbps

Parution : 02 novembre 2004

Étiquette : Dare to care Records

Numéro de catalogue : DTC018

Catégorie : Rock

Langue : Français (Québécois)

Bitrate : 320kbps






General
Complete name : /home/graben/Public/Malajube - Le Compte Complet/05_LAmour Sous lEau.mp3
Format : MPEG Audio
File size : 1.39 MiB
Duration : 36s 226ms
Overall bit rate : 320 Kbps
Album : Le Compte Complet
Track name : L'Amour Sous l'Eau
Track name/Position : 5
Performer : Malajube
Accompaniment : Malajube
Publisher : Dare To Care
Genre : General Rock
Recorded date : 2004

Audio
Format : MPEG Audio
Format version : Version 1
Format profile : Layer 3
Duration : 36s 226ms
Bit rate mode : Constant
Bit rate : 320 Kbps
Channel(s) : 2 channels
Sampling rate : 44.1 KHz
Resolution : 16 bits
Stream size : 1.38 MiB (100%)

General
Complete name : /home/graben/Public/Malajube - Le Compte Complet/Malajube Le Compte Complet.nfo
File size : 1.49 KiB

General
Complete name : /home/graben/Public/Malajube - Le Compte Complet/09_La ValA©rie.mp3
Format : MPEG Audio
File size : 11.5 MiB
Duration : 5mn 0s
Overall bit rate : 320 Kbps
Album : Le Compte Complet
Track name/Position : 9
Performer : Malajube
Accompaniment : Malajube
Publisher : Dare To Care
Genre : General Rock
Recorded date : 2004

Audio
Format : MPEG Audio
Format version : Version 1
Format profile : Layer 3
Duration : 5mn 0s
Bit rate mode : Constant
Bit rate : 320 Kbps
Channel(s) : 2 channels
Sampling rate : 44.1 KHz
Resolution : 16 bits
Stream size : 11.5 MiB (100%)

General
Complete name : /home/graben/Public/Malajube - Le Compte Complet/06_Le Bataillon.mp3
Format : MPEG Audio
File size : 4.41 MiB
Duration : 1mn 55s
Overall bit rate : 320 Kbps
Album : Le Compte Complet
Track name : Le Bataillon
Track name/Position : 6
Performer : Malajube
Accompaniment : Malajube
Publisher : Dare To Care
Genre : General Rock
Recorded date : 2004

Audio
Format : MPEG Audio
Format version : Version 1
Format profile : Layer 3
Duration : 1mn 55s
Bit rate mode : Constant
Bit rate : 320 Kbps
Channel(s) : 2 channels
Sampling rate : 44.1 KHz
Resolution : 16 bits
Stream size : 4.40 MiB (100%)

General
Complete name : /home/graben/Public/Malajube - Le Compte Complet/02_La Maladie.mp3
Format : MPEG Audio
File size : 3.50 MiB
Duration : 1mn 31s
Overall bit rate : 320 Kbps
Album : Le Compte Complet
Track name : La Maladie
Track name/Position : 2
Performer : Malajube
Accompaniment : Malajube
Publisher : Dare To Care
Genre : General Rock
Recorded date : 2004

Audio
Format : MPEG Audio
Format version : Version 1
Format profile : Layer 3
Duration : 1mn 31s
Bit rate mode : Constant
Bit rate : 320 Kbps
Channel(s) : 2 channels
Sampling rate : 44.1 KHz
Resolution : 16 bits
Stream size : 3.49 MiB (100%)

General
Complete name : /home/graben/Public/Malajube - Le Compte Complet/01_LIntroduction.mp3
Format : MPEG Audio
File size : 946 KiB
Duration : 24s 116ms
Overall bit rate : 320 Kbps
Album : Le Compte Complet
Track name : L'Introduction
Track name/Position : 1
Performer : Malajube
Accompaniment : Malajube
Publisher : Dare To Care
Genre : General Rock
Recorded date : 2004

Audio
Format : MPEG Audio
Format version : Version 1
Format profile : Layer 3
Duration : 24s 116ms
Bit rate mode : Constant
Bit rate : 320 Kbps
Channel(s) : 2 channels
Sampling rate : 44.1 KHz
Resolution : 16 bits
Stream size : 942 KiB (100%)

General
Complete name : /home/graben/Public/Malajube - Le Compte Complet/03_Le Robot Sexy.mp3
Format : MPEG Audio
File size : 6.24 MiB
Duration : 2mn 43s
Overall bit rate : 320 Kbps
Album : Le Compte Complet
Track name : Le Robot Sexy
Track name/Position : 3
Performer : Malajube
Accompaniment : Malajube
Publisher : Dare To Care
Genre : General Rock
Recorded date : 2004

Audio
Format : MPEG Audio
Format version : Version 1
Format profile : Layer 3
Duration : 2mn 43s
Bit rate mode : Constant
Bit rate : 320 Kbps
Channel(s) : 2 channels
Sampling rate : 44.1 KHz
Resolution : 16 bits
Stream size : 6.24 MiB (100%)

General
Complete name : /home/graben/Public/Malajube - Le Compte Complet/04_Le MA©tronome.mp3
Format : MPEG Audio
File size : 6.23 MiB
Duration : 2mn 43s
Overall bit rate : 320 Kbps
Album : Le Compte Complet
Track name/Position : 4
Performer : Malajube
Accompaniment : Malajube
Publisher : Dare To Care
Genre : General Rock
Recorded date : 2004

Audio
Format : MPEG Audio
Format version : Version 1
Format profile : Layer 3
Duration : 2mn 43s
Bit rate mode : Constant
Bit rate : 320 Kbps
Channel(s) : 2 channels
Sampling rate : 44.1 KHz
Resolution : 16 bits
Stream size : 6.23 MiB (100%)

General
Complete name : /home/graben/Public/Malajube - Le Compte Complet/10_La Conclusion.mp3
Format : MPEG Audio
File size : 22.1 MiB
Duration : 9mn 38s
Overall bit rate : 320 Kbps
Album : Le Compte Complet
Track name : La Conclusion
Track name/Position : 10
Performer : Malajube
Accompaniment : Malajube
Publisher : Dare To Care
Genre : General Rock
Recorded date : 2004

Audio
Format : MPEG Audio
Format version : Version 1
Format profile : Layer 3
Duration : 9mn 38s
Bit rate mode : Constant
Bit rate : 320 Kbps
Channel(s) : 2 channels
Sampling rate : 44.1 KHz
Resolution : 16 bits
Stream size : 22.1 MiB (100%)

General
Complete name : /home/graben/Public/Malajube - Le Compte Complet/07_Le Jus De Citron.mp3
Format : MPEG Audio
File size : 6.24 MiB
Duration : 2mn 43s
Overall bit rate : 320 Kbps
Album : Le Compte Complet
Track name : Le Jus De Citron
Track name/Position : 7
Performer : Malajube
Accompaniment : Malajube
Publisher : Dare To Care
Genre : General Rock
Recorded date : 2004

Audio
Format : MPEG Audio
Format version : Version 1
Format profile : Layer 3
Duration : 2mn 43s
Bit rate mode : Constant
Bit rate : 320 Kbps
Channel(s) : 2 channels
Sampling rate : 44.1 KHz
Resolution : 16 bits
Stream size : 6.23 MiB (100%)

General
Complete name : /home/graben/Public/Malajube - Le Compte Complet/08_Les Dents.mp3
Format : MPEG Audio
File size : 6.20 MiB
Duration : 2mn 42s
Overall bit rate : 320 Kbps
Album : Le Compte Complet
Track name : Les Dents
Track name/Position : 8
Performer : Malajube
Accompaniment : Malajube
Publisher : Dare To Care
Genre : General Rock
Recorded date : 2004

Audio
Format : MPEG Audio
Format version : Version 1
Format profile : Layer 3
Duration : 2mn 42s
Bit rate mode : Constant
Bit rate : 320 Kbps
Channel(s) : 2 channels
Sampling rate : 44.1 KHz
Resolution : 16 bits
Stream size : 6.19 MiB (100%)