Sports related

Ghetto Fights 3 DvdRip Xvid LK torrent [supreme speeds com]

  • Download 5x Faster
  • Download torrent
  • Direct Download
  • Rate this torrent +  |  -
Ghetto Fights 3 DvdRip Xvid LK torrent [supreme speeds com]

Free and Direct Download with Usenet 300GB+ free


Torrent info

Name:Ghetto Fights 3 DvdRip Xvid LK torrent [supreme speeds com]

Total Size: 746.02 MB

Magnet: Magnet Link

Seeds: 0

Leechers: 0

Stream: Watch Online @ Movie4u

Last Updated: 2015-09-20 21:49:44 (Update Now)

Torrent added: 2009-09-07 23:32:26




Torrent Files List


Ghetto.Fights.3.DvdRip.Xvid.LK.part27.rar (Size: 746.02 MB) (Files: 52)

 Ghetto.Fights.3.DvdRip.Xvid.LK.part27.rar

15.00 MB

 Ghetto.Fights.3.DvdRip.Xvid.LK.part02.rar

15.00 MB

 Ghetto.Fights.3.DvdRip.Xvid.LK.part03.rar

15.00 MB

 Ghetto.Fights.3.DvdRip.Xvid.LK.part04.rar

15.00 MB

 Ghetto.Fights.3.DvdRip.Xvid.LK.part05.rar

15.00 MB

 Ghetto.Fights.3.DvdRip.Xvid.LK.part06.rar

15.00 MB

 Ghetto.Fights.3.DvdRip.Xvid.LK.part07.rar

15.00 MB

 Ghetto.Fights.3.DvdRip.Xvid.LK.part08.rar

15.00 MB

 Ghetto.Fights.3.DvdRip.Xvid.LK.part09.rar

15.00 MB

 Ghetto.Fights.3.DvdRip.Xvid.LK.part10.rar

15.00 MB

 Ghetto.Fights.3.DvdRip.Xvid.LK.part11.rar

15.00 MB

 Ghetto.Fights.3.DvdRip.Xvid.LK.part12.rar

15.00 MB

 Ghetto.Fights.3.DvdRip.Xvid.LK.part13.rar

15.00 MB

 Ghetto.Fights.3.DvdRip.Xvid.LK.part14.rar

15.00 MB

 Ghetto.Fights.3.DvdRip.Xvid.LK.part15.rar

15.00 MB

 Ghetto.Fights.3.DvdRip.Xvid.LK.part16.rar

15.00 MB

 Ghetto.Fights.3.DvdRip.Xvid.LK.part17.rar

15.00 MB

 Ghetto.Fights.3.DvdRip.Xvid.LK.part18.rar

15.00 MB

 Ghetto.Fights.3.DvdRip.Xvid.LK.part19.rar

15.00 MB

 Ghetto.Fights.3.DvdRip.Xvid.LK.part20.rar

15.00 MB

 Ghetto.Fights.3.DvdRip.Xvid.LK.part21.rar

15.00 MB

 Ghetto.Fights.3.DvdRip.Xvid.LK.part22.rar

15.00 MB

 Ghetto.Fights.3.DvdRip.Xvid.LK.part23.rar

15.00 MB

 Ghetto.Fights.3.DvdRip.Xvid.LK.part24.rar

15.00 MB

 Ghetto.Fights.3.DvdRip.Xvid.LK.part25.rar

15.00 MB

 Ghetto.Fights.3.DvdRip.Xvid.LK.part26.rar

15.00 MB

 Ghetto.Fights.3.DvdRip.Xvid.LK.part01.rar

15.00 MB

 Ghetto.Fights.3.DvdRip.Xvid.LK.part28.rar

15.00 MB

 Ghetto.Fights.3.DvdRip.Xvid.LK.part29.rar

15.00 MB

 Ghetto.Fights.3.DvdRip.Xvid.LK.part30.rar

15.00 MB

 Ghetto.Fights.3.DvdRip.Xvid.LK.part31.rar

15.00 MB

 Ghetto.Fights.3.DvdRip.Xvid.LK.part32.rar

15.00 MB

 Ghetto.Fights.3.DvdRip.Xvid.LK.part33.rar

15.00 MB

 Ghetto.Fights.3.DvdRip.Xvid.LK.part34.rar

15.00 MB

 Ghetto.Fights.3.DvdRip.Xvid.LK.part35.rar

15.00 MB

 Ghetto.Fights.3.DvdRip.Xvid.LK.part36.rar

15.00 MB

 Ghetto.Fights.3.DvdRip.Xvid.LK.part37.rar

15.00 MB

 Ghetto.Fights.3.DvdRip.Xvid.LK.part38.rar

15.00 MB

 Ghetto.Fights.3.DvdRip.Xvid.LK.part39.rar

15.00 MB

 Ghetto.Fights.3.DvdRip.Xvid.LK.part40.rar

15.00 MB

 Ghetto.Fights.3.DvdRip.Xvid.LK.part41.rar

15.00 MB

 Ghetto.Fights.3.DvdRip.Xvid.LK.part42.rar

15.00 MB

 Ghetto.Fights.3.DvdRip.Xvid.LK.part43.rar

15.00 MB

 Ghetto.Fights.3.DvdRip.Xvid.LK.part44.rar

15.00 MB

 Ghetto.Fights.3.DvdRip.Xvid.LK.part45.rar

15.00 MB

 Ghetto.Fights.3.DvdRip.Xvid.LK.part46.rar

15.00 MB

 Ghetto.Fights.3.DvdRip.Xvid.LK.part47.rar

15.00 MB

 Ghetto.Fights.3.DvdRip.Xvid.LK.part48.rar

15.00 MB

 Ghetto.Fights.3.DvdRip.Xvid.LK.part49.rar

15.00 MB

 Ghetto.Fights.3.DvdRip.Xvid.LK.part50.rar

10.99 MB

 info.jpg

27.36 KB

 nfo.txt

2.14 KB
 

tracker

leech seeds
 

Torrent description

LK Presents

Ghetto.Fights.3.Dvdrip.Xvid.LK




Format : AVI
Format/Info : Audio Video Interleave
File size : 746 MiB
Duration : 1h 17mn
Overall bit rate : 1 339 Kbps


Video
Format : MPEG-4 Visual
Format profile : [email protected]
Format settings, BVOP : No
Format settings, QPel : No
Format settings, GMC : No warppoints
Format settings, Matrix : Default (H.263)
Codec ID : DIVX
Codec ID/Info : Project Mayo
Codec ID/Hint : DivX 4
Duration : 1h 17mn
Bit rate : 1 199 Kbps
Width : 720 pixels
Height : 480 pixels
Display aspect ratio : 1.500
Frame rate : 29.970 fps
Standard : NTSC
Resolution : 24 bits
Colorimetry : 4:2:0
Scan type : Progressive
Bits/(Pixel*Frame) : 0.116
Stream size : 668 MiB (90%)
Writing library : avc2.0.11.1110

Audio
Format : MPEG Audio
Format version : Version 1
Format profile : Layer 3
Codec ID : 55
Codec ID/Hint : MP3
Duration : 1h 17mn
Bit rate mode : Constant
Bit rate : 128 Kbps
Channel(s) : 2 channels
Sampling rate : 48.0 KHz
Resolution : 16 bits
Stream size : 71.3 MiB (10%)
Alignment : Split accross interleaves
Interleave, duration : 33 ms (1.00 video frame)
Interleave, preload duration : 500 ms
Writing library : LAME3.96.1

related torrents

Torrent name

health leech seeds Size
 

comments (0)

Main Menu