Sports related

Ghetto Fights 2 DvdRip Xvid LK torrent [supreme speeds com]

  • Download 5x Faster
  • Download torrent
  • Direct Download
  • Rate this torrent +  |  -
Ghetto Fights 2 DvdRip Xvid LK torrent [supreme speeds com]

Anonymous and Free Direct Download 300GB+


Torrent info

Name:Ghetto Fights 2 DvdRip Xvid LK torrent [supreme speeds com]

Total Size: 698.34 MB

Magnet: Magnet Link

Seeds: 0

Leechers: 0

Stream: Watch Online @ Movie4u

Last Updated: 2015-09-20 21:49:36 (Update Now)

Torrent added: 2009-09-07 23:32:25



VPN For Torrents

Torrent Files List


Ghetto.Fights.2.DvdRip.Xvid.LK.part25.rar (Size: 698.34 MB) (Files: 49)

 Ghetto.Fights.2.DvdRip.Xvid.LK.part25.rar

15.00 MB

 Ghetto.Fights.2.DvdRip.Xvid.LK.part02.rar

15.00 MB

 Ghetto.Fights.2.DvdRip.Xvid.LK.part03.rar

15.00 MB

 Ghetto.Fights.2.DvdRip.Xvid.LK.part04.rar

15.00 MB

 Ghetto.Fights.2.DvdRip.Xvid.LK.part05.rar

15.00 MB

 Ghetto.Fights.2.DvdRip.Xvid.LK.part06.rar

15.00 MB

 Ghetto.Fights.2.DvdRip.Xvid.LK.part07.rar

15.00 MB

 Ghetto.Fights.2.DvdRip.Xvid.LK.part08.rar

15.00 MB

 Ghetto.Fights.2.DvdRip.Xvid.LK.part09.rar

15.00 MB

 Ghetto.Fights.2.DvdRip.Xvid.LK.part10.rar

15.00 MB

 Ghetto.Fights.2.DvdRip.Xvid.LK.part11.rar

15.00 MB

 Ghetto.Fights.2.DvdRip.Xvid.LK.part12.rar

15.00 MB

 Ghetto.Fights.2.DvdRip.Xvid.LK.part13.rar

15.00 MB

 Ghetto.Fights.2.DvdRip.Xvid.LK.part14.rar

15.00 MB

 Ghetto.Fights.2.DvdRip.Xvid.LK.part15.rar

15.00 MB

 Ghetto.Fights.2.DvdRip.Xvid.LK.part16.rar

15.00 MB

 Ghetto.Fights.2.DvdRip.Xvid.LK.part17.rar

15.00 MB

 Ghetto.Fights.2.DvdRip.Xvid.LK.part18.rar

15.00 MB

 Ghetto.Fights.2.DvdRip.Xvid.LK.part19.rar

15.00 MB

 Ghetto.Fights.2.DvdRip.Xvid.LK.part20.rar

15.00 MB

 Ghetto.Fights.2.DvdRip.Xvid.LK.part21.rar

15.00 MB

 Ghetto.Fights.2.DvdRip.Xvid.LK.part22.rar

15.00 MB

 Ghetto.Fights.2.DvdRip.Xvid.LK.part23.rar

15.00 MB

 Ghetto.Fights.2.DvdRip.Xvid.LK.part24.rar

15.00 MB

 Ghetto.Fights.2.DvdRip.Xvid.LK.part01.rar

15.00 MB

 Ghetto.Fights.2.DvdRip.Xvid.LK.part26.rar

15.00 MB

 Ghetto.Fights.2.DvdRip.Xvid.LK.part27.rar

15.00 MB

 Ghetto.Fights.2.DvdRip.Xvid.LK.part28.rar

15.00 MB

 Ghetto.Fights.2.DvdRip.Xvid.LK.part29.rar

15.00 MB

 Ghetto.Fights.2.DvdRip.Xvid.LK.part30.rar

15.00 MB

 Ghetto.Fights.2.DvdRip.Xvid.LK.part31.rar

15.00 MB

 Ghetto.Fights.2.DvdRip.Xvid.LK.part32.rar

15.00 MB

 Ghetto.Fights.2.DvdRip.Xvid.LK.part33.rar

15.00 MB

 Ghetto.Fights.2.DvdRip.Xvid.LK.part34.rar

15.00 MB

 Ghetto.Fights.2.DvdRip.Xvid.LK.part35.rar

15.00 MB

 Ghetto.Fights.2.DvdRip.Xvid.LK.part36.rar

15.00 MB

 Ghetto.Fights.2.DvdRip.Xvid.LK.part37.rar

15.00 MB

 Ghetto.Fights.2.DvdRip.Xvid.LK.part38.rar

15.00 MB

 Ghetto.Fights.2.DvdRip.Xvid.LK.part39.rar

15.00 MB

 Ghetto.Fights.2.DvdRip.Xvid.LK.part40.rar

15.00 MB

 Ghetto.Fights.2.DvdRip.Xvid.LK.part41.rar

15.00 MB

 Ghetto.Fights.2.DvdRip.Xvid.LK.part42.rar

15.00 MB

 Ghetto.Fights.2.DvdRip.Xvid.LK.part43.rar

15.00 MB

 Ghetto.Fights.2.DvdRip.Xvid.LK.part44.rar

15.00 MB

 Ghetto.Fights.2.DvdRip.Xvid.LK.part45.rar

15.00 MB

 Ghetto.Fights.2.DvdRip.Xvid.LK.part46.rar

15.00 MB

 Ghetto.Fights.2.DvdRip.Xvid.LK.part47.rar

8.31 MB

 info.jpg

27.36 KB

 nfo.txt

2.04 KB
 

tracker

leech seeds
 

Torrent description

LK Presents

Ghetto.Fights.2.Dvdrip.Xvid.LK

only at supreme-speeds.com were you will find Movies,Games,Music lots more
we dont password files
its that easy come see the speed


Format : AVI
Format/Info : Audio Video Interleave
File size : 698 MiB
Duration : 1h 2mn
Overall bit rate : 1 570 Kbps

Video
Format : MPEG-4 Visual
Format profile : Streaming [email protected]
Format settings, BVOP : Yes
Format settings, QPel : No
Format settings, GMC : No warppoints
Format settings, Matrix : Default (H.263)
Muxing mode : Packed bitstream
Codec ID : XVID
Codec ID/Hint : XviD
Duration : 1h 2mn
Bit rate : 1 334 Kbps
Width : 528 pixels
Height : 384 pixels
Display aspect ratio : 1.375
Frame rate : 29.970 fps
Resolution : 24 bits
Colorimetry : 4:2:0
Scan type : Progressive
Bits/(Pixel*Frame) : 0.220
Stream size : 593 MiB (85%)
Writing library : XviD 1.1.0 (UTC 2005-11-22)

Audio
Format : AC-3
Format/Info : Audio Coding 3
Format profile : Dolby Digital
Codec ID : 2000
Duration : 1h 2mn
Bit rate mode : Constant
Bit rate : 224 Kbps
Channel(s) : 2 channels
Channel positions : L R
Sampling rate : 48.0 KHz
Stream size : 99.6 MiB (14%)
Alignment : Split accross interleaves
Interleave, duration : 33 ms (1.00 video frame)
Interleave, preload duration : 500 ms

related torrents

Torrent name

health leech seeds Size
 


comments (0)

Main Menu