Comedy

The Accidental Husband 720p x264 AAC FLAWL3SS [teamfx org]

  • Download 5x Faster
  • Download torrent
  • Direct Download
  • Rate this torrent +  |  -
The Accidental Husband 720p x264 AAC FLAWL3SS [teamfx org]

Anonymous and Free Direct Download 300GB+


Torrent info

Name:The Accidental Husband 720p x264 AAC FLAWL3SS [teamfx org]

Total Size: 781.74 MB

Magnet: Magnet Link

Seeds: 0

Leechers: 0

Stream: Watch Online @ Movie4u

Last Updated: 2015-09-10 21:58:56 (Update Now)

Torrent added: 2009-09-07 23:21:28



VPN For Torrents

Torrent Files List


The.Accidental.Husband.720p.MP4.ACC-FLAWL3SS.NFO (Size: 781.74 MB) (Files: 3)

 The.Accidental.Husband.720p.MP4.ACC-FLAWL3SS.NFO

7.71 KB

 The.Accidental.Husband.720p.x264.AAC-FLAWL3SS.mp4

732.83 MB

 The.Accidental.Husband.720p.x264.AAC-FLAWL3SS_010.mp4

48.91 MB
 

tracker

leech seeds
 

Torrent description

The.Accidental.Husband.720p.x264.AAC-FLAWL3SS
*******************************************************************************

-------------------------------------------------------------------------------
General Information
-------------------------------------------------------------------------------

Cover By.............: FuksYouSilf

Samples Included.....: YES

PC Compatible........: YES

Xbox 360 Compatible..: YES

Audio/Video Info:

Complete name : The.Accidental.Husband.720p.MP4.ACC-FLAWL3SSThe.Accidental.Husband.720p.MP4.ACC-FLAWL3SS.mp4
Format : MPEG-4
Format profile : Base Media
Codec ID : isom
File size : 733 MiB
Duration : 1h 30mn
Overall bit rate : 1 131 Kbps
Encoded date : UTC 2009-08-03 15:24:17
Tagged date : UTC 2009-08-03 15:24:17
Writing application : Yamb 2.1.0.0 [http://yamb.unite-video.com]

Video
ID : 1
Format : AVC
Format/Info : Advanced Video Codec
Format profile : [email protected]
Format settings, CABAC : Yes
Format settings, ReFrames : 4 frames
Codec ID : avc1
Codec ID/Info : Advanced Video Coding
Duration : 1h 30mn
Bit rate mode : Variable
Bit rate : 1 000 Kbps
Maximum bit rate : 2 934 Kbps
Width : 1 280 pixels
Height : 688 pixels
Display aspect ratio : 1.860
Frame rate mode : Constant
Frame rate : 23.976 fps
Resolution : 24 bits
Colorimetry : 4:2:0
Scan type : Progressive
Bits/(Pixel*Frame) : 0.047
Stream size : 648 MiB (88%)
Writing library : x264 core 68 r1183M f21daff
Encoding settings : cabac=1 / ref=4 / deblock=1:-1:-1 / analyse=0x3:0x113 / me=tesa / subme=9 / psy_rd=1.0:0.0 / mixed_ref=1 / me_range=32 / chroma_me=1 / trellis=2 / 8x8dct=1 / cqm=2 / deadzone=21,11 / chroma_qp_offset=-2 / threads=6 / nr=0 / decimate=0 / mbaff=0 / bframes=3 / b_pyramid=0 / b_adapt=2 / b_bias=0 / direct=3 / wpredb=1 / keyint=250 / keyint_min=25 / scenecut=40 / rc=2pass / bitrate=1000 / ratetol=1.0 / qcomp=0.60 / qpmin=10 / qpmax=51 / qpstep=4 / cplxblur=20.0 / qblur=0.5 / vbv_maxrate=50000 / vbv_bufsize=50000 / ip_ratio=1.40 / pb_ratio=1.30 / aq=1:1.00
Encoded date : UTC 2009-08-03 06:39:54
Tagged date : UTC 2009-08-03 15:25:01

Audio
ID : 2
Format : AAC
Format/Info : Advanced Audio Codec
Format version : Version 4
Format profile : LC
Format settings, SBR : Yes
Format settings, PS : No
Codec ID : 40
Duration : 1h 30mn
Bit rate mode : Variable
Bit rate : 128 Kbps
Maximum bit rate : 137 Kbps
Channel(s) : 2 channels
Channel positions : L R
Sampling rate : 48.0 KHz
Resolution : 16 bits
Stream size : 83.0 MiB (12%)
Encoded date : UTC 2009-08-03 15:25:00
Tagged date : UTC 2009-08-03 15:25:01


Encoded By...........: BDK

Language.............: English
Subtitles............: N/A

Cover and Label Art..: Included

Runtime..............: 1:30

Movie Information....: http://www.imdb.com/title/tt0809504/

Size Of Rip..........: 940 MB SINGLE FILE

-------------------------------------------------------------------------------

Release Notes
-------------------------------------------------------------------------------
Director:
Griffin Dunne

Writers:
Mimi Hare
Clare Naylor

Genre:
Comedy | Romance

Tagline:
Falling in love... even the expert is confused.
Plot:
When talk radio host Emma Lloyd advises one of her listeners to break up with her boyfriend, the jilted ex sets about getting his revenge.

Cast:

Uma Thurman ... Dr. Emma Lloyd

Jeffrey Dean Morgan ... Patrick Sullivan

Colin Firth ... Richard Bratton

Sam Shepard ... Wilder Lloyd

Lindsay Sloane ... Marcy

Justina Machado ... Sofia

Ajay Naidu ... Deep

Jeffrey Tedmori ... Ajay
Nick Sandow ... Larry

Michael Mosley ... Declin

Brooke Adams ... Carolyn

Lindsey Kraft ... Lauren
Sarita Choudhury ... Sunny
Yolande Bavan ... Naniji

Isabella Rossellini ... Greta Bollenbecker

related torrents

Torrent name

health leech seeds Size
 


comments (0)

Main Menu