Horror

intimid redmist festival avi [teamfx org]

  • Download 5x Faster
  • Download torrent
  • Direct Download
  • Rate this torrent +  |  -
intimid redmist festival avi [teamfx org]

Free and Direct Download with Usenet 300GB+ free


Torrent info

Name:intimid redmist festival avi [teamfx org]

Total Size: 700.60 MB

Magnet: Magnet Link

Seeds: 1

Leechers: 0

Stream: Watch Online @ Movie4u

Last Updated: 2009-11-23 13:19:53 (Update Now)

Torrent added: 2009-09-07 23:19:44




Torrent Files List


intimid-redmist-festival.avi (Size: 700.60 MB) (Files: 1)

 intimid-redmist-festival.avi

700.60 MB
 

Announce URL: http://teamfx.org/announce.php

Torrent description

Genre: Supernatural
Director: Paddy Breathnach
Writen by: Spence Wright written by
Year: 2008
Country: UK
Language: English
Filmed in: Color
Runtime: 82 minutes
# Tagline: Do Not Resuscitate
# Plot: A young doctor in a US hospital administers a powerful and untested cocktail of drugs to a coma victim. But instead of curing him, it triggers a powerful "out-of-body" experience and enables the patient - a depraved and dangerous loner - to inhabit other people's bodies and, through them, take revenge on the bullying medical students who were accidentally responsible for his condition. The doctor, who was herself a part of this group, is also targeted and as her colleagues are singled out and relentlessly picked off, she realises that she can trust no-one - friend or stranger - as this comatose killer moves in and out of bodies at will, getting ever closer as his murderous supernatural powers increase. Written by GE
Actors: Arielle Kebbel Catherine
Sarah Carter Kim
Stephen Dillane Dr. Harris
Andrew Lee Potts Kenneth
Alex Wyndham Jake
Katie McGrath Harriet
Christina Chong Yoshimi
Martin Compston Sean
Michael Jibson Steve
MyAnna Buring Shelby
Colin Stinton Detective Cartert
Nick Hardin Walt
Michael J. Reynolds Dr. Stegman
Sarah Boyd-Wilson Vanessa (as Sarah Boyd Wilson)
Art Parkinson Young Kenneth
Bronagh Taggart Kenneth's Mother
Emmet Scanlan Stranger (as Emmet J. Scanlan)
Derek Mallisan Pharmacist
Mike Calo Bleeding Student
Sandra Ni Bhroin Bleeding Student's Girlfriend
Marcus Valentine Paramedic 1
Richard McFerran Paramedic 2
Megan O'Rawe-Toner Little girl
Logan Bruce Dr. Shemp (uncredited)
Links
imdb.com: http://www.imdb.com/title/tt1185264
Rip Details
Subtitles: No
Release Version: Rated
Duration: 82 min
Ripped from: NTSC DVD-5
Codec: Xvid
Quality: Good looking Rip! high quality!
Notes Comments Etc.
Notes

Format : AVI
Format/Info : Audio Video Interleave
File size : 701 MiB
Duration : 1h 25mn
Overall bit rate : 1 147 Kbps
Writing application : Nandub v1.0rc2
Writing library : Nandub build 1853/release

Video
Format : MPEG-4 Visual
Format profile : Streaming [email protected]
Format settings, BVOP : Yes
Format settings, QPel : No
Format settings, GMC : No warppoints
Format settings, Matrix : Default
Muxing mode : Packed bitstream
Codec ID : XVID
Codec ID/Hint : XviD
Duration : 1h 25mn
Bit rate : 990 Kbps
Width : 624 pixels
Height : 352 pixels
Display aspect ratio : 16/9
Frame rate : 23.976 fps
Resolution : 24 bits
Colorimetry : 4:2:0
Scan type : Progressive
Bits/(Pixel*Frame) : 0.188
Stream size : 605 MiB (86%)
Writing library : XviD 1.1.2 (UTC 2006-11-01)

Audio
Format : MPEG Audio
Format version : Version 1
Format profile : Layer 3
Codec ID : 55
Codec ID/Hint : MP3
Duration : 1h 25mn
Bit rate mode : Variable
Bit rate : 144 Kbps
Minimum bit rate : 32.0 Kbps
Channel(s) : 2 channels
Sampling rate : 48.0 KHz
Resolution : 16 bits
Video delay : 960ms
Stream size : 88.0 MiB (13%)
Alignment : Aligned on interleaves
Interleave, duration : 24 ms (0.58 video frame)
Interleave, preload duration : 127 ms
Writing library : LAME3.98a
Encoding settings : VBR (mtrh

related torrents

Torrent name

health leech seeds Size
 

comments (0)

Main Menu