Comedy

Giallo 2009 DVDRip KiSSJouR [teamfx org]

  • Download 5x Faster
  • Download torrent
  • Direct Download
  • Rate this torrent +  |  -
Giallo 2009 DVDRip KiSSJouR [teamfx org]

Free and Direct Download with Usenet.nl 300GB+ free


Torrent info

Name:Giallo 2009 DVDRip KiSSJouR [teamfx org]

Total Size: 699.86 MB

Magnet: Magnet Link

Seeds: 1

Leechers: 0

Stream: Watch Online @ Movie4u

Last Updated: 2010-06-09 14:57:25 (Update Now)

Torrent added: 2009-09-07 23:14:50





Torrent Files List


Giallo 2009 DVDRip KiSSJouR.avi (Size: 699.86 MB) (Files: 2)

 Giallo 2009 DVDRip KiSSJouR.avi

699.86 MB

 Giallo 2009 DVDRip KiSSJouR.NFO

3.75 KB
 

Announce URL: http://teamfx.org/announce.php

Torrent description

General
Complete name : Giallo 2009 DVDRip KiSSJouR.avi
Format : AVI
Format/Info : Audio Video Interleave
File size : 700 MiB
Duration : 1h 28mn
Overall bit rate : 1 105 Kbps
Writing application : VirtualDubMod 1.5.10.2 (build 2542/release)
Writing library : VirtualDubMod build 2542/release

Video
Format : MPEG-4 Visual
Format profile : Streaming [email protected]
Format settings, BVOP : Yes
Format settings, QPel : No
Format settings, GMC : No warppoints
Format settings, Matrix : Default (H.263)
Codec ID : XVID
Codec ID/Hint : XviD
Duration : 1h 28mn
Bit rate : 966 Kbps
Width : 640 pixels
Height : 352 pixels
Display aspect ratio : 16/9
Frame rate : 25.000 fps
Resolution : 24 bits
Colorimetry : 4:2:0
Scan type : Progressive
Bits/(Pixel*Frame) : 0.171
Stream size : 611 MiB (87%)
Writing library : XviD 1.1.2 (UTC 2006-11-01)

Audio
Format : MPEG Audio
Format version : Version 1
Format profile : Layer 3
Codec ID : 55
Codec ID/Hint : MP3
Duration : 1h 28mn
Bit rate mode : Constant
Bit rate : 32.0 Kbps
Channel(s) : 2 channels
Sampling rate : 48.0 KHz
Resolution : 16 bits
Stream size : 80.2 MiB (11%)
Alignment : Aligned on interleaves
Interleave, duration : 24 ms (0.60 video frame)
Interleave, preload duration : 504 ms

Plot:
In Italy, a woman fears her sister may have been kidnapped. Inspector Enzo Avolfi
fears it's worse. They team up to rescue her from a sadistic killer known only as
Yellow.

IMDB: http://www.imdb.com/title/tt1107816/

related torrents

Torrent name

health leech seeds Size
 

comments (0)

Main Menu