Comedy

CUSTOM DVDSCR American Violet [email protected] torrent [supreme speeds com]

  • Download 5x Faster
  • Download torrent
  • Direct Download
  • Rate this torrent +  |  -

Torrent info

Name:CUSTOM DVDSCR American Violet [email protected] torrent [supreme speeds com]

Total Size: 1.36 GB

Magnet: Magnet Link

Seeds: 0

Leechers: 0

Stream: Watch Full Movie @ Movie4u

Last Updated: 2009-11-23 13:18:55 (Update Now)

Torrent added: 2009-09-07 23:12:53



VPN For Torrents

Torrent Files List


VIDEO_TS (Size: 1.36 GB) (Files: 9)

 VIDEO_TS

  VIDEO_TS.BUP

12.00 KB

  VIDEO_TS.IFO

12.00 KB

  VIDEO_TS.VOB

56.00 KB

  VTS_01_0.BUP

82.00 KB

  VTS_01_0.IFO

82.00 KB

  VTS_01_0.VOB

22.88 MB

  VTS_01_1.VOB

1.00 GB

  VTS_01_2.VOB

344.70 MB

 info.jpg

27.36 KB
 

Announce URL: http://supreme-speeds.com/announce.php?passkey=8becaeff8274999b141029b877a8467b

Torrent description

CUSTOM DVDSCR THESE FILES R READY TO BURN STRAIGHT TO DISC THREW NERO

SOURCE USED DVDSCR XVID - STG

Video
ID : 224 (0xE0)
Format : MPEG Video
Format version : Version 2
Format profile : [email protected]
Format settings, Matrix : Default
Duration : 1h 16mn
Bit rate mode : Variable
Bit rate : 1 608 Kbps
Nominal bit rate : 9 608 Kbps
Width : 720 pixels
Height : 480 pixels
Display aspect ratio : 16/9
Frame rate : 29.970 fps
Standard : NTSC
Colorimetry : 4:2:0
Scan type : Progressive
Bits/(Pixel*Frame) : 0.155
Stream size : 878 MiB (86%)

Audio
ID : 128 (0x80)
Format : AC-3
Format/Info : Audio Coding 3
Duration : 1h 16mn
Bit rate mode : Constant
Bit rate : 192 Kbps
Channel(s) : 2 channels
Channel positions : L R
Sampling rate : 48.0 KHz
Stream size : 105 MiB (10%)

PRESENTS:
American Violet DVDSCR XVID - STG

Release Date......:10/08/09
Theatre Date......:17/04/09 limited
DVD Runtime.......:01:43:01
Language..........:ENGLISH
IMDb URL..........:http://www.imdb.com/title/tt1152397/
IMDB Rating.......:7.0/10
Video Codec.......: XVID
Audio Codec.......:MP3
Audio Bitrate.....:128
Subtitles.........:NIL
Resolution...... 704 x 288


PLEASE READ NOTES BELOW !!!!

...:::orginal folder:::...
American Violet DVDR - Transformerz thank youm8


...:::folder name:::...
American Violet DVDSCR XVID - STG


DETAILS:
===== File Info =====
FileSize : 1398M
PlayTime : 01:43:01.264
VideoCount : 1
AudioCount : 1
===== Video Info =====
Video 0# Stream
VideoCodec : XVID
VideoWidth : 704 pixels
VideoHeight : 288 pixels
VideoFrameRate : 23.976fps
VideoFrameCount : 148202
VideoBitRate : 1764
===== Audio Info =====
Audio 0# Stream
AudioCodec : MP3
AudioBitRate : 128000
AudioChannels : 2
AudioSampleRate : 48000

NOTES:
Here's the first source on the net of this ....well from what i can see
Was sent this dvdscreener by a friend and it looked pretty good.....few little issues here and there but
on the whole good.
Audio was nice aswell as expected off a dvdscreener....
Oh goes black and white and as the property of message in yellow......very now and then


WORK DONE:
Was going to filter all the colours etc.....but got to be honest and i have decided to leave it how it was expect
i fixed the bad ivtc and the interlace issues .....

Overall based on a dvdscr V9 A9 M8........Really nice all round and will suit even the picky ones until the dvdrip comes along ;-)


Ps PLEASE DO NOT DOWNLOAD MY RELEASES IF YOU DON'T LIKE RE-ENCODES OR IF YOU THINK BY SOME
HOW ME RE-ENCODING THEM IS GOING TO MAKE THEM LOOK LIKE R5'S....BECAUSE THEY DON'T!!!!!

Have anything to offer????......Contact me

GREETS TO:

Quickcycles,TheGRiM ,Doggett,BLaZekVCD,Melvinmeow,Jambo28,Marshall77,Diamond,Dragon,Kingben,Diva,takagari,
grAPH,DEViSE,goolimpo,Cakey,iAPULA,PrisM,ELEKTRI4KA,Lynks,NNC,Escalade, Traphouse,Spire,FLAWL3SS,Studapoo
FATAL,Stash,BigDaddyKane,TSQG,Shentiyo,BLiRHE,pythons-lair for the server and many more

PLEASE CHECK SAMPLE....AS SCREENS ALWAYS LOOK BETTER!!!!!
This image has been resized. Click this bar to view the full image. The original image is sized 704x288.

This image has been resized. Click this bar to view the full image. The original image is sized 704x288.

This image has been resized. Click this bar to view the full image. The original image is sized 704x288.

This image has been resized. Click this bar to view the full image. The original image is sized 704x288.

related torrents

Torrent name

health leech seeds Size
 


comments (0)

Main Menu

 

script data-cfasync="false" src="//d2ghscazvn398x.cloudfront.net/?cshgd=690275">