Rock

ACDC Plug me in[2007]harry989

  • Download 5x Faster
  • Download torrent
  • Direct Download
  • Rate this torrent +  |  -
ACDC Plug me in[2007]harry989

Free and Direct Download with Usenet 300GB+ free


Torrent info

Name:ACDC Plug me in[2007]harry989

Total Size: 2.24 GB

Magnet: Magnet Link

Seeds: 1

Leechers: 4

Stream: Watch Online @ Movie4u

Last Updated: 2010-04-25 13:55:25 (Update Now)

Torrent added: 2009-09-07 23:07:29




Torrent Files List


acdc disk 1.avi (Size: 2.24 GB) (Files: 4)

 acdc disk 1.avi

1.00 GB

 acdc disk 2.avi

1.24 GB

 nfo.nfo

6.32 KB

 tracked_by_h33t_com.txt

0.02 KB
 

Announce URL: http://www.h33t.com:3310/announce

Torrent description

*******************************************************************************
AC/DC Plug Me In
*******************************************************************************

-------------------------------------------------------------------------------
General Information
-------------------------------------------------------------------------------
Format : AVI
Format/Info : Audio Video Interleave
Format profile : OpenDML
File size : 2.23 GiB
Duration :
Overall bit rate : 563 Kbps
Writing application : Lavf51.12.1

Video
ID : 0
Format : MPEG-4 Visual
Format profile : [email protected]
Format settings, BVOP : No
Format settings, QPel : No
Format settings, GMC : No warppoints
Format settings, Matrix : Default (H.263)
Codec ID : DX50
Codec ID/Hint : DivX 5
Duration : 5h 16mn
Bit rate : 502 Kbps
Width : 720 pixels
Height : 480 pixels
Display aspect ratio : 1.500
Frame rate : 29.970 fps
Standard : NTSC
Resolution : 24 bits
Colorimetry : 4:2:0
Scan type : Progressive
Bits/(Pixel*Frame) : 0.048
Stream size : 1.11 GiB (89%)
Writing library : Lavc51.40.4

Audio
ID : 1
Format : MPEG Audio
Format version : Version 1
Format profile : Layer 3
Codec ID : 55
Codec ID/Hint : MP3
Duration : 2h 12mn
Bit rate mode : Constant
Bit rate : 128 Kbps
Channel(s) : 2 channels
Sampling rate : 48.0 KHz
Resolution : 16 bits
Stream size : 121 MiB (10%)
Alignment : Aligned on interleaves
Interleave, duration : 24 ms (0.72 video frame)
Interleave, preload duration : 24 ms
Writing library : LAME3.97
Source............... : DVDrip
Genre................ : hardrock
IMDb Rating.......... : 9
Movie Information.... : http://www.imdb.com/title/tt1174684/
CD1 Size............. : 0.99GB
CD2 Size............. : 2.24GB

-------------------------------------------------------------------------------
Post Information
-------------------------------------------------------------------------------
Posted by............: harry989

-------------------------------------------------------------------------------
Release Notes
-------------------------------------------------------------------------------

DVD 1(1975-1979)
High Voltage [King Of Pop Awards, Australia, October 1975]
It's A Long Way To The Top (If You Wanna Rock `N' Roll) [Bandstand, Australia,
February 1976]
School Days [St. Albans High School, Australia, March 1976]
T.N.T. [St. Albans High School, Australia, March 1976]
Live Wire [Super Pop/Rollin' Bolan, London, July 1976]
Can I Sit Next To You Girl [Super Pop/Rollin' Bolan, London, July 1976]
Baby Please Don't Go [Myer Music Bowl, Melbourne, December 1976]
Hell Ain't A Bad Place To Be [Sight & Sound In Concert, London, October 1977]
Rocker [Sight & Sound In Concert, London, October 1977]
Rock 'N' Roll Damnation [Apollo Theatre, Glasgow, April 1978]
Dog Eat Dog [Apollo Theatre, Glasgow, April 1978]
Let There Be Rock [Apollo Theatre, Glasgow, April 1978]
Problem Child [Rock Goes To College, Colchester, October 1978]
Sin City [Rock Goes To College, Colchester, October 1978]
Bad Boy Boogie [Rock Goes To College, Colchester, October 1978]
Highway To Hell [Countdown, Arnhem, August 1979]
The Jack [Countdown, Arnhem, August 1979]
Whole Lotta Rosie [Countdown, Arnhem, August 1979]



DVD 2 (1981-2003)
Shot Down In Flames [Nihon Seinenkan, Tokyo, February 1981]
What Do You Do For Money Honey [Nihon Seinenkan, Tokyo, February 1981]
You Shook Me All Night Long [Nihon Seinenkan, Tokyo, February 1981]
T.N.T./Let There Be Rock [Nihon Seinenkan, Tokyo, February 1981]
Back In Black [Capital Center, Landover MD, December 1981]
T.N.T. [Capital Center, Landover MD, December 1981]
Shoot To Thrill [The Summit, Houston TX, October 1983]
Guns For Hire [Joe Louis Arena, Detroit MI, November 1983]
Dirty Deeds Done Dirt Cheap [Joe Louis Arena, Detroit MI, November 1983]
Flick Of The Switch [Capital Center, Landover MD, December 1983]
Bedlam In Belgium [Capital Center, Landover MD, December 1983]
Back In Black [Tushino Airfield, Moscow, September 1991]
Highway To Hell [Tushino Airfield, Moscow, September 1991]
Whole Lotta Rosie [Tushino Airfield, Moscow, September 1991]
For Those About To Rock (We Salute You) [Tushino Airfield, Moscow, September
1991]
Gone Shootin' [VH1 Studios, London, July 1996]
Hail Caesar [Entertainment Center, Sydney, November 1996]
Ballbreaker [Entertainment Center, Sydney, November 1996]
Rock And Roll Ain't Noise Pollution [Entertainment Center, Sydney, November
1996]
Hard As A Rock [Stade De France, Paris, June 2001]
Hells Bells [Stade De France, Paris, June 2001]
Ride On [Stade De France, Paris, June 2001]
Stiff Upper Lip [Circus Krone, Munich, June 2003]
Thunderstruck [Circus Krone, Munich, June 2003]
If You Want Blood (You've Got It) [Downsview Park Toronto Rocks, July 2003]
The Jack [Downsview Park Toronto Rocks, July 2003]
You Shook Me All Night Long [Downsview Park Toronto Rocks, July 2003]


infohash.............: 195C8DD2AE6C5F60B1F9C1C9D4213DB9BE91BDFA

TRACKERS.............: http//h33t.com:3310/announce

.............: http://tracker.openbittorrent.com:80/announce

.............: http://tracker.publicbt.com:80/announce


===========www.tornster.com===========



related torrents

Torrent name

health leech seeds Size
 

comments (0)

Main Menu