Other

The Last House On The Left UNRATED 720p x264 AAC FLAWL3SS [teamfx org]

  • Download 5x Faster
  • Download torrent
  • Direct Download
  • Rate this torrent +  |  -
The Last House On The Left UNRATED 720p x264 AAC FLAWL3SS [teamfx org]

Free and Direct Download with Usenet.nl 300GB+ free


Torrent info

Name:The Last House On The Left UNRATED 720p x264 AAC FLAWL3SS [teamfx org]

Total Size: 1.05 GB

Magnet: Magnet Link

Seeds: 0

Leechers: 0

Stream: Watch Online @ Movie4u

Last Updated: 2015-08-30 21:27:36 (Update Now)

Torrent added: 2009-09-07 22:59:38





Torrent Files List


Labels (Size: 1.05 GB) (Files: 5)

 Labels

  the last house on the left cd.jpg

95.32 KB

  the last house on the left cover.jpg

309.88 KB

 The Last House On The Left UNRATED 720p x264-FLAWL3SS.mp4

1.01 GB

 The Last House On The Left UNRATED 720p x264-FLAWL3SS_001.mp4

49.24 MB

 The.Last.House.On.The Left.UNRATED.720p.x264.AAC-FLAWL3SS.NFO

6.18 KB
 

tracker

leech seeds
 

Torrent description

*******************************************************************************
The.Last.House.On.The Left.UNRATED.720p.x264.AAC-FLAWL3SS
*******************************************************************************

-------------------------------------------------------------------------------
General Information
-------------------------------------------------------------------------------

Cover By.............: FuksYouSilf

Samples Included.....: YES

Burn Tested..........: YES

PC Compatible........: YES

XBOX 360.............: YES

WD TV Media Player...: YES

Popcorn Hour.........: YES

Complete name : The.Last.House.On.The Left.UNRATED.720p.x264.AAC-FLAWL3SSThe Last House On The Left UNRATED 720p x264-FLAWL3SS.mp4
Format : MPEG-4
Format profile : Base Media
Codec ID : isom
File size : 1.01 GiB
Duration : 1h 53mn
Overall bit rate : 1 268 Kbps

Video
ID : 1
Format : AVC
Format/Info : Advanced Video Codec
Format profile : [email protected]
Format settings, CABAC : Yes
Format settings, ReFrames : 2 frames
Codec ID : avc1
Codec ID/Info : Advanced Video Coding
Duration : 1h 53mn
Bit rate mode : Variable
Bit rate : 1 200 Kbps
Maximum bit rate : 3 944 Kbps
Width : 1 280 pixels
Height : 696 pixels
Display aspect ratio : 16/9
Frame rate mode : Constant
Frame rate : 23.976 fps
Resolution : 24 bits
Colorimetry : 4:2:0
Scan type : Progressive
Bits/(Pixel*Frame) : 0.056
Stream size : 975 MiB (95%)
Writing library : x264 core 68 r1183M f21daff
Encoding settings : cabac=1 / ref=1 / deblock=1:-1:-1 / analyse=0x3:0x133 / me=hex / subme=2 / psy_rd=0.0:0.0 / mixed_ref=0 / me_range=16 / chroma_me=1 / trellis=0 / 8x8dct=1 / cqm=0 / deadzone=21,11 / chroma_qp_offset=0 / threads=6 / nr=0 / decimate=0 / mbaff=0 / bframes=3 / b_pyramid=0 / b_adapt=2 / b_bias=0 / direct=3 / wpredb=1 / keyint=250 / keyint_min=25 / scenecut=40 / rc=2pass / bitrate=1200 / ratetol=1.0 / qcomp=0.60 / qpmin=10 / qpmax=51 / qpstep=4 / cplxblur=20.0 / qblur=0.5 / vbv_maxrate=17500 / vbv_bufsize=14000 / ip_ratio=1.40 / pb_ratio=1.30 / aq=1:1.00

Audio
ID : 2
Format : AAC
Format/Info : Advanced Audio Codec
Format version : Version 4
Format profile : LC
Format settings, SBR : No
Codec ID : 40
Duration : 1h 53mn
Bit rate mode : Variable
Bit rate : 64.0 Kbps
Maximum bit rate : 100.0 Kbps
Channel(s) : 2 channels
Channel positions : L R
Sampling rate : 48.0 KHz
Resolution : 16 bits
Stream size : 52.0 MiB (5%)

Encoded By...........: BDK

Language.............: English
Subtitles............: N/A

Cover and Label Art..: Included

Runtime..............: 1:53

Movie Information....: http://www.imdb.com/title/tt1098327/

Size Of Rip..........: 1.01 GB SINGLE FILE

-------------------------------------------------------------------------------

Release Notes
-------------------------------------------------------------------------------
Genre:
Crime | Drama | Horror | Thriller

Tagline:
If bad people hurt someone you love, how far would you go to hurt them back?

Plot:
After kidnapping and brutally assaulting two young women, a gang led by a prison escapee unknowingly finds refuge at a vacation home belonging the parents of one of the victims -- a mother and father who devise an increasingly gruesome series of revenge tactics.

Cast:

Garret Dillahunt ... Krug

Michael Bowen ... Morton

Joshua Cox ... Giles (as Josh Cox)

Riki Lindhome ... Sadie
Aaron Paul ... Francis

Sara Paxton ... Mari Collingwood

Monica Potter ... Emma Collingwood

Tony Goldwyn ... John Collingwood
Martha MacIsaac ... Paige

Spencer Treat Clark ... Justin
Usha Khan ... Maid

related torrents

Torrent name

health leech seeds Size
 

comments (0)

Main Menu