Action

The Cave DVDRiP XViD SB0 [teamfx org]

  • Download 5x Faster
  • Download torrent
  • Direct Download
  • Rate this torrent +  |  -
The Cave DVDRiP XViD SB0 [teamfx org]

Anonymous and Direct Download 300GB+ free


Torrent info

Name:The Cave DVDRiP XViD SB0 [teamfx org]

Total Size: 701.98 MB

Magnet: Magnet Link

Seeds: 0

Leechers: 0

Stream: Watch Online @ Movie4u

Last Updated: 2009-11-23 13:17:47 (Update Now)

Torrent added: 2009-09-07 22:58:35




Torrent Files List


The Cave DVDRiP XViD SB0.avi (Size: 701.98 MB) (Files: 2)

 The Cave DVDRiP XViD SB0.avi

701.97 MB

 The Cave DVDRiP XViD SB0.nfo

4.38 KB
 

Announce URL: http://teamfx.org/announce.php

Torrent description

*******************************************************************************
The Cave DVDRiP XViD SB0
*******************************************************************************

-------------------------------------------------------------------------------
General Information
-------------------------------------------------------------------------------
Type.................: Movie



Movie Information....: http://www.imdb.com/title/tt0402901/

-------------------------------------------------------------------------------
Post Information
-------------------------------------------------------------------------------
Posted by............: SB0

-------------------------------------------------------------------------------
Release Notes
-------------------------------------------------------------------------------
General
Complete name : The Cave DVDRiP XViD SB0.avi
Format : AVI
Format/Info : Audio Video Interleave
File size : 702 MiB
Duration : 1h 30mn
Overall bit rate : 1 082 Kbps
Writing application : VirtualDubMod 1.5.4.1 (build 2178/release)
Writing library : VirtualDubMod build 2178/release

Video
Format : MPEG-4 Visual
Format profile : Streaming [email protected]
Format settings, BVOP : Yes
Format settings, QPel : No
Format settings, GMC : No warppoints
Format settings, Matrix : Custom
Codec ID : XVID
Codec ID/Hint : XviD
Duration : 1h 30mn
Bit rate : 976 Kbps
Width : 608 pixels
Height : 272 pixels
Display aspect ratio : 2.25
Frame rate : 25.000 fps
Resolution : 24 bits
Colorimetry : 4:2:0
Scan type : Progressive
Bits/(Pixel*Frame) : 0.236
Stream size : 633 MiB (90%)
Writing library : XviD 1.2.1 (UTC 2008-12-04)

Audio
Format : MPEG Audio
Format version : Version 1
Format profile : Layer 3
Codec ID : 55
Codec ID/Hint : MP3
Duration : 1h 30mn
Bit rate mode : Variable
Bit rate : 94.0 Kbps
Nominal bit rate : 112 Kbps
Channel(s) : 2 channels
Sampling rate : 44.1 KHz
Resolution : 16 bits
Stream size : 61.0 MiB (9%)
Alignment : Aligned on interleaves
Interleave, duration : 26 ms (0.65 video frame)
Interleave, preload duration : 203 ms
Writing library : LAME3.98r
Encoding settings : -m j -V 4 -q 2 -lowpass 15.6 --abr 112

A group of cave-divers and scientists explore a newly found cave system in
Romania. However, rockfall blocks the exit and after delving further into the
cave, the group discover a pack of deadly creatures are waiting for them. With
their leader Jack having very strange side-effects and with their numbers
dropping, the group must delve even further into the cave, battle the creatures
and hope for an exit

Cast
(Complete credited cast)

Cole Hauser ... Jack McAllister

Eddie Cibrian ... Tyler McAllister

Morris Chestnut ... Top Buchanan
Lena Headey ... Dr. Kathryn Jennings

Piper Perabo ... Charlie

Rick Ravanello ... Briggs

Daniel Dae Kim ... Alex Kim

Kieran Darcy-Smith ... Strode
Marcel Iures ... Dr. Nicolai
Vlad Radescu ... Dr. Bacovia
Simon Kunz ... Mike - Caver #1
David Kennedy ... Ian - Caver #2
Alin Panc ... Razvan - Caver #3
Zoltan Butuc ... Corvin - Caver #4

Brian Steele ... Creature Performer

Enjoy As Always...

related torrents

Torrent name

health leech seeds Size
 


comments (0)

Main Menu