Action

Push[2009] [teamfx org]

  • Download 5x Faster
  • Download torrent
  • Direct Download
  • Rate this torrent +  |  -
Push[2009] [teamfx org]

Anonymous and Direct Download 300GB+ free


Torrent info

Name:Push[2009] [teamfx org]

Total Size: 699.84 MB

Magnet: Magnet Link

Seeds: 0

Leechers: 0

Stream: Watch Online @ Movie4u

Last Updated: 2009-11-23 13:17:03 (Update Now)

Torrent added: 2009-09-07 22:51:39




Torrent Files List


Push.avi (Size: 699.84 MB) (Files: 1)

 Push.avi

699.84 MB
 

Announce URL: http://teamfx.org/announce.php

Torrent description

IMDB: http://www.imdb.com/title/tt0465580/

Plot:

Push is a 2009 American science fiction thriller film directed by Paul McGuigan. The film
stars Chris Evans, Dakota Fanning, Djimon Hounsou, and Camilla Belle. The plot centers
on a group of people born with various powers who band together to attempt to take
down a government agency that is using a dangerous drug to enhance their powers in
hopes of creating an army of super soldiers.





Format : AVI
Format/Info : Audio Video Interleave
File size : 700 MiB
Duration : 1h 51mn
Overall bit rate : 878 Kbps
Writing application : VirtualDubMod 1.5.10.2 (build 2540/release)
Writing library : VirtualDubMod build 2540/release

Video
ID : 0
Format : MPEG-4 Visual
Format profile : [email protected]
Format settings, BVOP : Yes
Format settings, QPel : No
Format settings, GMC : No warppoints
Format settings, Matrix : Default (H.263)
Muxing mode : Packed bitstream
Codec ID : DX50
Codec ID/Hint : DivX 5
Duration : 1h 51mn
Bit rate : 757 Kbps
Width : 608 pixels
Height : 336 pixels
Display aspect ratio : 16:9
Frame rate : 23.976 fps
Resolution : 24 bits
Colorimetry : 4:2:0
Scan type : Progressive
Bits/(Pixel*Frame) : 0.154
Stream size : 603 MiB (86%)
Writing library : XviD 1.2.0.dev47 (UTC 2006-11-01)

Audio
ID : 1
Format : MPEG Audio
Format version : Version 1
Format profile : Layer 3
Codec ID : 55
Codec ID/Hint : MP3
Duration : 1h 51mn
Bit rate mode : Constant
Bit rate : 112 Kbps
Channel(s) : 2 channels
Sampling rate : 44.1 KHz
Resolution : 16 bits
Stream size : 89.3 MiB (13%)
Alignment : Split accross interleaves
Interleave, duration : 42 ms (1.00 video frame)
Interleave, preload duration : 500 ms

related torrents

Torrent name

health leech seeds Size

Halo 2009 teamfx org

5 7 1.37 GB 0
 


comments (0)

Main Menu