Comedy

CUSTOM DVD DANCE FLICK COM torrent [supreme speeds com]

  • Download 5x Faster
  • Download torrent
  • Direct Download
  • Rate this torrent +  |  -
CUSTOM DVD DANCE FLICK COM torrent [supreme speeds com]

Anonymous and Free Direct Download 300GB+


Torrent info

Name:CUSTOM DVD DANCE FLICK COM torrent [supreme speeds com]

Total Size: 2.08 GB

Magnet: Magnet Link

Seeds: 0

Leechers: 0

Stream: Watch Online @ Movie4u

Last Updated: 2017-01-02 12:21:04 (Update Now)

Torrent added: 2009-09-07 22:47:58



VPN For Torrents

Torrent Files List


VIDEO_TS (Size: 2.08 GB) (Files: 9)

 VIDEO_TS

  VIDEO_TS.BUP

12.00 KB

  VIDEO_TS.IFO

12.00 KB

  VIDEO_TS.VOB

56.00 KB

  VTS_01_0.BUP

70.00 KB

  VTS_01_0.IFO

70.00 KB

  VTS_01_0.VOB

43.83 MB

  VTS_01_1.VOB

1.00 GB

  VTS_01_2.VOB

1.00 GB

  VTS_01_3.VOB

37.89 MB
 

tracker

leech seeds
 

Torrent description

THIS IS A CUSTOM DVD THESE FILES R READY TO BURN THREW NERO

Video
ID : 224 (0xE0)
Format : MPEG Video
Format version : Version 2
Format profile : [email protected]
Format settings, Matrix : Default
Duration : 30s 30ms
Bit rate mode : Variable
Bit rate : 11.6 Mbps
Nominal bit rate : 9 100 Kbps
Width : 720 pixels
Height : 480 pixels
Display aspect ratio : 4/3
Frame rate : 29.970 fps
Standard : NTSC
Colorimetry : 4:2:0
Scan type : Progressive
Bits/(Pixel*Frame) : 1.117
Stream size : 41.4 MiB (94%)

Audio
ID : 128 (0x80)
Format : AC-3
Format/Info : Audio Coding 3
Duration : 29s 856ms
Bit rate mode : Constant
Bit rate : 192 Kbps
Channel(s) : 2 channels
Channel positions : L R
Sampling rate : 48.0 KHz
Stream size : 700 KiB (2%)

related torrents

Torrent name

health leech seeds Size
 


comments (0)

Main Menu