Action

[most wanted] Convoy 1978 German AC3 DVDRIP XVID INTERNAL PIEPclassix

  • Download 5x Faster
  • Download torrent
  • Direct Download
  • Rate this torrent +  |  -

Torrent info

Name:[most wanted] Convoy 1978 German AC3 DVDRIP XVID INTERNAL PIEPclassix

Total Size: 1.37 GB

Magnet: Magnet Link

Seeds: 0

Leechers: 0

Stream: Watch Online @ Movie4u

Last Updated: 2010-10-07 16:49:27 (Update Now)

Torrent added: 2009-09-07 22:30:10



VPN For Torrents

Torrent Files List


CD1 (Size: 1.37 GB) (Files: 2)

 CD1

  piepc-convoya

   piepc-convoya.avi

699.73 MB

 CD2

  piepc.convoyb

   piepc.convoyb.avi

700.14 MB
 

Announce URL: http://tracker.openbittorrent.com/announce

Torrent description

Convoy.1978.German.AC3.DVDRIP.XVID.INTERNAL-PIEPclassix.avi
Format: AVI
Format/Info: Audio Video Interleave
File size: 1.37 GiB
Duration: 1h 46mn
Overall bit rate: 1 842 Kbps
Video
ID: 0
Format: MPEG-4 Visual
Format profile: [email protected]
Format settings, BVOP: Yes
Format settings, QPel: No
Format settings, GMC: No warppoints
Format settings, Matrix: Default (H.263)
Codec ID: XVID
Codec ID/Hint: XviD
Duration: 1h 46mn
Bit rate: 1 640 Kbps
Width: 624 pixels
Height: 256 pixels
Display aspect ratio: 2.40:1
Frame rate: 25.000 fps
Resolution: 24 bits
Colorimetry: 4:2:0
Scan type: Progressive
Bits/(Pixel*Frame): 0.411
Stream size: 1.22 GiB (89)
Writing library: XviD 1.1.2 (UTC 2006-11-01)
Audio
ID: 1
Format: AC-3
Format/Info: Audio Coding 3
Codec ID: 2000
Duration: 1h 46mn
Bit rate mode: Constant
Bit rate: 192 Kbps
Channel(s): 2 channels
Channel positions: L R
Sampling rate: 48.0 KHz
Stream size: 146 MiB (10)
Alignment: Aligned on interleaves
Interleave, duration: 40 ms (1.00 video frame)
Um gegen brutale Polizeiuebergriffe, die Machenschaften von Korruption und Machtmissbrauch zu protestieren, schliessen sich Trucker aus ganz Amerika zu einer spektakulaeren Aktion zusammen: Trucks aller Formen und Groessen bilden einen riesigen Convoy, der von Kueste zu Kueste durch das Land rollt. An einer Bruecke kurz vor der Staatsgrenze von Louisiana wollen Militaereinheiten die Kolonne mit aller Gewalt stoppen. Doch der Anfuehrer Rubber Duck (Kris Kristofferson) laesst sich nicht einschuechtern und steuert seinen Lastzug voll hochexplosiver Chemikalien direkt auf die Strassensperre zu. Ein gezielter Schuss loest ein feuriges Inferno aus, dem Rubber Duck schliesslich nicht mehr entkommen kann

related torrents

Torrent name

health leech seeds Size
 


comments (0)

Main Menu