Comedy

Grease 1978 BRRip AC3 XviD MiDeViL

  • Download 5x Faster
  • Download torrent
  • Direct Download
  • Rate this torrent +  |  -
Grease 1978 BRRip AC3 XviD MiDeViL

Free and Direct Download with Usenet.nl 300GB+ free


Torrent info

Name:Grease 1978 BRRip AC3 XviD MiDeViL

Total Size: 1.93 GB

Magnet: Magnet Link

Seeds: 3

Leechers: 0

Stream: Watch Online @ Movie4u

Last Updated: 2010-10-03 11:13:02 (Update Now)

Torrent added: 2009-09-07 22:23:38





Torrent Files List


GrSe.nfo (Size: 1.93 GB) (Files: 46)

 GrSe.nfo

4.07 KB

 Grease.(1978).BRrip.XviD.ac3.MiDeViL.sfv

6.55 KB

 Grease.(1978).BRrip.XviD.ac3.MiDeViL2.part01.rar

46.00 MB

 Grease.(1978).BRrip.XviD.ac3.MiDeViL2.part02.rar

46.00 MB

 Grease.(1978).BRrip.XviD.ac3.MiDeViL2.part03.rar

46.00 MB

 Grease.(1978).BRrip.XviD.ac3.MiDeViL2.part04.rar

46.00 MB

 Grease.(1978).BRrip.XviD.ac3.MiDeViL2.part05.rar

46.00 MB

 Grease.(1978).BRrip.XviD.ac3.MiDeViL2.part06.rar

46.00 MB

 Grease.(1978).BRrip.XviD.ac3.MiDeViL2.part07.rar

46.00 MB

 Grease.(1978).BRrip.XviD.ac3.MiDeViL2.part08.rar

46.00 MB

 Grease.(1978).BRrip.XviD.ac3.MiDeViL2.part09.rar

46.00 MB

 Grease.(1978).BRrip.XviD.ac3.MiDeViL2.part10.rar

46.00 MB

 Grease.(1978).BRrip.XviD.ac3.MiDeViL2.part11.rar

46.00 MB

 Grease.(1978).BRrip.XviD.ac3.MiDeViL2.part12.rar

46.00 MB

 Grease.(1978).BRrip.XviD.ac3.MiDeViL2.part13.rar

46.00 MB

 Grease.(1978).BRrip.XviD.ac3.MiDeViL2.part14.rar

46.00 MB

 Grease.(1978).BRrip.XviD.ac3.MiDeViL2.part15.rar

46.00 MB

 Grease.(1978).BRrip.XviD.ac3.MiDeViL2.part16.rar

46.00 MB

 Grease.(1978).BRrip.XviD.ac3.MiDeViL2.part17.rar

46.00 MB

 Grease.(1978).BRrip.XviD.ac3.MiDeViL2.part18.rar

46.00 MB

 Grease.(1978).BRrip.XviD.ac3.MiDeViL2.part19.rar

46.00 MB

 Grease.(1978).BRrip.XviD.ac3.MiDeViL2.part20.rar

46.00 MB

 Grease.(1978).BRrip.XviD.ac3.MiDeViL2.part21.rar

46.00 MB

 Grease.(1978).BRrip.XviD.ac3.MiDeViL2.part22.rar

46.00 MB

 Grease.(1978).BRrip.XviD.ac3.MiDeViL2.part23.rar

46.00 MB

 Grease.(1978).BRrip.XviD.ac3.MiDeViL2.part24.rar

46.00 MB

 Grease.(1978).BRrip.XviD.ac3.MiDeViL2.part25.rar

46.00 MB

 Grease.(1978).BRrip.XviD.ac3.MiDeViL2.part26.rar

46.00 MB

 Grease.(1978).BRrip.XviD.ac3.MiDeViL2.part27.rar

46.00 MB

 Grease.(1978).BRrip.XviD.ac3.MiDeViL2.part28.rar

46.00 MB

 Grease.(1978).BRrip.XviD.ac3.MiDeViL2.part29.rar

46.00 MB

 Grease.(1978).BRrip.XviD.ac3.MiDeViL2.part30.rar

46.00 MB

 Grease.(1978).BRrip.XviD.ac3.MiDeViL2.part31.rar

46.00 MB

 Grease.(1978).BRrip.XviD.ac3.MiDeViL2.part32.rar

46.00 MB

 Grease.(1978).BRrip.XviD.ac3.MiDeViL2.part33.rar

46.00 MB

 Grease.(1978).BRrip.XviD.ac3.MiDeViL2.part34.rar

46.00 MB

 Grease.(1978).BRrip.XviD.ac3.MiDeViL2.part35.rar

46.00 MB

 Grease.(1978).BRrip.XviD.ac3.MiDeViL2.part36.rar

46.00 MB

 Grease.(1978).BRrip.XviD.ac3.MiDeViL2.part37.rar

46.00 MB

 Grease.(1978).BRrip.XviD.ac3.MiDeViL2.part38.rar

46.00 MB

 Grease.(1978).BRrip.XviD.ac3.MiDeViL2.part39.rar

46.00 MB

 Grease.(1978).BRrip.XviD.ac3.MiDeViL2.part40.rar

46.00 MB

 Grease.(1978).BRrip.XviD.ac3.MiDeViL2.part41.rar

46.00 MB

 Grease.(1978).BRrip.XviD.ac3.MiDeViL2.part42.rar

46.00 MB

 Grease.(1978).BRrip.XviD.ac3.MiDeViL2.part43.rar

32.74 MB

 grse.sample.avi

9.12 MB
 

Announce URL: http://cyberdrivein.selfip.org:81/announce.php

Torrent description

General

Complete name : Grease.(1978).BRrip.XviD.ac3.MiDeViL2.avi
Format : AVI
Format/Info : Audio Video Interleave
File size : 1.95 GiB
Duration : 1h 50mn
Overall bit rate : 2 522 Kbps
Writing application : VirtualDubMod 1.5.10.2 (build 2540/release)
Writing library : VirtualDubMod build 2540/release


Video

ID : 0
Format : MPEG-4 Visual
Format profile : [email protected]
Format settings, BVOP : Yes
Format settings, QPel : No
Format settings, GMC : No warppoints
Format settings, Matrix : Default (MPEG)
Muxing mode : Packed bitstream
Codec ID : XVID
Codec ID/Hint : XviD
Duration : 1h 50mn
Bit rate : 2 064 Kbps
Width : 1 280 pixels
Height : 720 pixels
Display aspect ratio : 2.2:1
Frame rate : 25.000 fps
Resolution : 24 bits
Colorimetry : 4:2:0
Scan type : Progressive
Bits/(Pixel*Frame) : 0.090
Stream size : 1.59 GiB (82%)
Writing library : XviD 1.3.0.dev55


Audio

ID : 1
Format : AC-3
Format/Info : Audio Coding 3
Codec ID : 2000
Duration : 1h 50mn
Bit rate mode : Constant
Bit rate : 448 Kbps
Channel(s) : 6 channels
Channel positions : Front: L C R, Surround: L R, LFE
Sampling rate : 48.0 KHz
Stream size : 354 MiB (18%)
Alignment : Split accross interleaves
Interleave, duration : 40 ms (1.00 video frame)
Interleave, preload duration : 500 ms


source : Grease.1978.720p.BD5.x264-IGUANA


http://www.imdb.com/title/tt0077631/

related torrents

Torrent name

health leech seeds Size
 

comments (0)

Main Menu