Anime - Other

Kiki's Delivery Service Studio Ghibli 5 MPEG 4 x264 RTN

  • Download 5x Faster
  • Download torrent
  • Direct Download
  • Rate this torrent +  |  -

Torrent info

Name:Kiki's Delivery Service Studio Ghibli 5 MPEG 4 x264 RTN

Total Size: 2.48 GB

Magnet: Magnet Link

Seeds: 0

Leechers: 0

Stream: Watch Full Movie @ Movie4u

Last Updated: 2015-09-08 14:15:54 (Update Now)

Torrent added: 2009-09-07 22:23:14



VPN For Torrents

Torrent Files List


Kiki's Delivery Service Details.txt (Size: 2.48 GB) (Files: 3)

 Kiki's Delivery Service Details.txt

4.08 KB

 Kiki's Delivery Service.mp4

2.48 GB

 Kiki's Delivery Service.srt

72.98 KB
 

tracker

leech seeds
 

Torrent description

Racethe.net is a private tracker and requires registrations. Registrations are open.
Once registered you have to download the torrent file from our site in order to get your passkey.
You are required to seed 1:1 or for 36 hours. Enjoy our Ghibli encodes.


English Subtitles
Japanese and English Audio
Encoded by Geagle
Upscaled to 720p with filters, for sharper look in fullscreen mode.
Source: UK DVD
Tested in QuickTime, both languages working correctly and subtitles working correctly.
IMDB: http://www.imdb.com/title/tt0097814/

From Wikipedia

Plot

Kiki is a 13-year-old witch-in-training, living in a small rural village where her mother is the resident herbalist. The film opens at the time traditional for Kiki to leave her home to spend a year alone in a new town to establish herself as a full witch. Kiki therefore flies off on her mother's broom with her closest companion, Jiji, a loquacious black cat. At her departure from home, she has trouble controlling her newly inherited broom, and ricochets off of the trees in her front yard.

Soon after leaving, Kiki asks Jiji to turn on the radio. He flips to a lively pop song and the beginning credits roll. After the credits and song finish, Kiki and Jiji meet another witch in training. After giving some advice about inner skills, this newcomer flies down to the town where she is staying. Seconds after she leaves, Kiki and Jiji are caught in a thunderstorm, from which they take overnight refuge in a train - specifically, in a cattle transport wagon. The next morning, Kiki and Jiji leave to find a place to settle in.


Kiki settles in the beautiful seaside European city of Koriko, and, after initially finding it difficult to adjust to the city's pace of life, finds friends and a new home with a baker and her husband, and starts a delivery service that takes advantage of her ability to fly. Kiki experiences several setbacks, such as slow business, misplaced merchandise, rude customers, and illness. She also must contend with her loneliness, worries, and homesickness. Having caught the eye of Tombo, a local boy about her age who has an interest in aviation and in Kiki herself, she at first rebuffs him, though she slowly begins to warm up to him. Jiji simultaneously courts a local cat named Lily, who had earlier snubbed him.

Because of slowly growing insecurity that finally comes to a head, Kiki's powers diminish and ultimately disappear, to her great shame. She also learns that, because of her loss of powers, Jiji has lost the ability to speak to her. Kiki learns about overcoming such obstacles with the help of a newfound friend, a young artist named Ursula, who gives Kiki advice regarding inspiration that she needs in order to regain her magical abilities.

In a moment of deadly crisis, Tombo is accidentally lifted into the air when some strong summer winds blow the dirigible into town. When she is his only hope of rescue, Kiki finds the inspiration to regain her flying ability. Improvising with a street-sweeper's push broom, Kiki manages to rescue Tombo with considerable difficulty. At that adventure's conclusion, Jiji rejoins her, and although Kiki finds her ability to talk to her cat is still gone forever, she still values his company. Suddenly famous, she sends home a simple, modest letter to her parents, saying that she is becoming used to her new home and that things are working out well for her.

The story continues through the end titles, as she flies a high-guard formation with Tombo as he flies his human-powered aircraft in a flight sequence obviously inspired by the Gossamer Albatross. Later, she is on the street of her town and notices a little girl walking past, because the little girl has her hair and clothing styled like Kiki's and is even carrying a small deck broom like the one Kiki flew to save Tombo - an indication of her having become a local celebrity. Jiji and Lily are also shown, with several kittens in tow.



General
Format : MPEG-4
Format profile : Base Media / Version 2
Codec ID : mp42
File size : 2.48 GiB
Duration : 1h 44mn
Overall bit rate : 3 409 Kbps
Encoded date : UTC 2009-08-29 09:11:22
Tagged date : UTC 2009-08-30 10:14:01
Writing application : HandBrake 0.9.3 2008112300

Video
ID : 1
Format : AVC
Format/Info : Advanced Video Codec
Format profile : [email protected]
Format settings, CABAC : Yes
Format settings, ReFrames : 1 frame
Codec ID : avc1
Codec ID/Info : Advanced Video Coding
Duration : 1h 44mn
Bit rate mode : Variable
Bit rate : 3 088 Kbps
Nominal bit rate : 3 962 Kbps
Width : 1 280 pixels
Height : 720 pixels
Display aspect ratio : 16/9
Frame rate mode : Variable
Frame rate : 19.487 fps
Minimum frame rate : 10.000 fps
Maximum frame rate : 25.000 fps
Original frame rate : 25.000 fps
Resolution : 24 bits
Colorimetry : 4:2:0
Scan type : Progressive
Bits/(Pixel*Frame) : 0.172
Stream size : 2.25 GiB (91%)
Writing library : x264 core 65


Audio #1
ID : 2
Format : AAC
Format/Info : Advanced Audio Codec
Format version : Version 4
Format profile : LC
Format settings, SBR : No
Codec ID : 40
Duration : 1h 44mn
Bit rate mode : Variable
Bit rate : 159 Kbps
Maximum bit rate : 251 Kbps
Channel(s) : 2 channels
Channel positions : L R
Sampling rate : 48.0 KHz
Resolution : 16 bits
Stream size : 119 MiB (5%)
Language : Japanese

Audio #2
ID : 3
Format : AAC
Format/Info : Advanced Audio Codec
Format version : Version 4
Format profile : LC
Format settings, SBR : No
Codec ID : 40
Duration : 1h 44mn
Bit rate mode : Variable
Bit rate : 158 Kbps
Maximum bit rate : 251 Kbps
Channel(s) : 2 channels
Channel positions : L R
Sampling rate : 48.0 KHz
Resolution : 16 bits
Stream size : 118 MiB (5%)
Language : English

related torrents

Torrent name

health leech seeds Size
 


comments (0)

Main Menu

 

script data-cfasync="false" src="//d2ghscazvn398x.cloudfront.net/?cshgd=690275">