Anime - Other

My Neighbour Totoro Studio Ghibli 9 MPEG 4 x264 RTN

  • Download 5x Faster
  • Download torrent
  • Direct Download
  • Rate this torrent +  |  -
My Neighbour Totoro Studio Ghibli 9 MPEG 4 x264 RTN

Free and Direct Download with Usenet 300GB+ free


Torrent info

Name:My Neighbour Totoro Studio Ghibli 9 MPEG 4 x264 RTN

Total Size: 3.22 GB

Magnet: Magnet Link

Seeds: 0

Leechers: 0

Stream: Watch Online @ Movie4u

Last Updated: 2015-07-30 14:26:56 (Update Now)

Torrent added: 2009-09-07 22:23:13




Torrent Files List


My Neighbour Totoro Details.txt (Size: 3.22 GB) (Files: 3)

 My Neighbour Totoro Details.txt

3.26 KB

 My Neighbour Totoro.mp4

3.22 GB

 My Neighbour Totoro.srt

44.29 KB
 

tracker

leech seeds
 

Torrent description

Racethe.net is a private tracker and requires registrations. Registrations are open.
Once registered you have to download the torrent file from our site in order to get your passkey.
You are required to seed 1:1 or for 36 hours. Enjoy our Ghibli encodes.



English Subtitles
Japanese and English Audio
Encoded by Geagle
Upscaled to 720p with filters, for sharper look in fullscreen mode.
Source: UK DVD
Tested in QuickTime, both languages working correctly and subtitles working correctly.
IMDB: http://www.imdb.com/title/tt0096283/

From Wikipedia:

Plot

In 1958, the Kusakabe family reunites when a university professor and his two daughters, Satsuki and Mei, move into an old house in rural Japan to be closer to the hospital where his wife is recovering from an illness. The daughters find that the house is inhabited by tiny animated dust creatures called soot sprites—small house spirits seen when moving from light to dark places. When the girls become comfortable in their new house and laugh with their father, the soot spirits leave.

While she is playing outside one day, the younger daughter, Mei, sees two white, rabbit-like ears in the grass. She follows the ears under the house where she discovers two small magical creatures, who lead her through a briar patch, and into the hollow of a large Camphor Laurel tree. She meets and befriends a larger version of the same kind of spirit, which identifies itself by a series of roars she interprets as "Totoro" (in the original Japanese dub, it stems from Mei's mispronunciation of the Japanese pronunciation of the word "troll"). Her father later tells her that this is the "keeper of the forest".

One rainy night the girls are waiting for their father's bus and grow worried when he does not arrive on the bus they expect him on. As they wait, Mei eventually falls asleep on Satsuki's back and Totoro appears beside them, allowing Satsuki to see him for the first time. He only has a leaf on his head for protection against the rain, so Satsuki offers him the umbrella she had taken along for her father. Totoro is delighted at both the shelter and the sounds made upon it by falling raindrops. In return he gives her a bundle of nuts and seeds. A bus-shaped giant cat halts at the stop, and Totoro boards it, taking the umbrella. Shortly after, their father’s bus arrives.

The girls plant the seeds. A few days later they awaken at midnight to find Totoro and his two miniature colleagues engaged in a ritual dance around the planted nuts and seeds. The girls join in, whereupon the seeds sprout and then grow into an enormous tree. Totoro takes his colleagues and the girls for a ride on a magical flying top. In the morning, the tree is gone, but the seeds have indeed sprouted.

Mei, believing her mother's condition has worsened, sets off on foot to the hospital and gets lost. Desperate to find her sister, Satsuki returns to the camphor laurel tree and pleads for Totoro's help. Delighted to be of assistance, he summons the Catbus, which rescues Mei, then whisks her and Satsuki over the countryside to see their mother in the hospital. The girls perch in a tree outside of the hospital to discover that she is doing well. They deliver an ear of corn that Mei believes will speed her mother's recovery, and then return home on the Catbus. When the Catbus departs, it fades away from the girls' sight.

The closing credits show Mei and Satsuki's mother returning home and feature scenes of Satsuki and Mei playing with other human children, with Totoro and his friends as unseen observers.




General
Format : MPEG-4
Format profile : Base Media / Version 2
Codec ID : mp42
File size : 3.22 GiB
Duration : 1h 22mn
Overall bit rate : 5 564 Kbps
Encoded date : UTC 2009-08-27 00:27:52
Tagged date : UTC 2009-08-27 20:27:12
Writing application : HandBrake 0.9.3 2008112300

Video
ID : 1
Format : AVC
Format/Info : Advanced Video Codec
Format profile : [email protected]
Format settings, CABAC : Yes
Format settings, ReFrames : 1 frame
Codec ID : avc1
Codec ID/Info : Advanced Video Coding
Duration : 1h 22mn
Bit rate mode : Variable
Bit rate : 5 240 Kbps
Width : 1 280 pixels
Height : 720 pixels
Display aspect ratio : 16/9
Frame rate mode : Variable
Frame rate : 25.000 fps
Minimum frame rate : 12.500 fps
Maximum frame rate : 25.000 fps
Resolution : 24 bits
Colorimetry : 4:2:0
Scan type : Progressive
Bits/(Pixel*Frame) : 0.227
Stream size : 3.03 GiB (94%)
Writing library : x264 core 65


Audio #1
ID : 2
Format : AAC
Format/Info : Advanced Audio Codec
Format version : Version 4
Format profile : LC
Format settings, SBR : No
Codec ID : 40
Duration : 1h 22mn
Bit rate mode : Variable
Bit rate : 160 Kbps
Maximum bit rate : 210 Kbps
Channel(s) : 2 channels
Channel positions : L R
Sampling rate : 48.0 KHz
Resolution : 16 bits
Stream size : 94.8 MiB (3%)
Language : Japanese
Encoded date : UTC 2009-08-27 00:27:52
Tagged date : UTC 2009-08-27 01:39:37

Audio #2
ID : 3
Format : AAC
Format/Info : Advanced Audio Codec
Format version : Version 4
Format profile : LC
Format settings, SBR : No
Codec ID : 40
Duration : 1h 22mn
Bit rate mode : Variable
Bit rate : 160 Kbps
Maximum bit rate : 208 Kbps
Channel(s) : 2 channels
Channel positions : L R
Sampling rate : 48.0 KHz
Resolution : 16 bits
Stream size : 94.8 MiB (3%)
Language : English
Encoded date : UTC 2009-08-27 00:27:52
Tagged date : UTC 2009-08-27 01:39:37

related torrents

Torrent name

health leech seeds Size

My Neighbour Totoro[

0 0 902.83 MB 0
 

comments (0)

Main Menu